<?xml version="1.0" standalone="no"?>
<!DOCTYPE svg PUBLIC "-//W3C//DTD SVG 1.1//EN" "http://www.w3.org/Graphics/SVG/1.1/DTD/svg11.dtd" >
<svg xmlns="http://www.w3.org/2000/svg">
<metadata></metadata>
<defs>
<font id="museo_sans_100italic" horiz-adv-x="1191" >
<font-face units-per-em="2048" ascent="1536" descent="-512" />
<missing-glyph horiz-adv-x="579" />
<glyph unicode="&#xfb01;" horiz-adv-x="1071" d="M106 0l185 946h-129l14 78h129l10 51q19 93 57 163.5t80 108.5t92.5 61t86 29.5t69.5 6.5l64 -4l-19 -80q-16 4 -45 4q-30 0 -58.5 -5t-67.5 -23.5t-70.5 -49t-60.5 -88t-44 -133.5l-8 -41h582l-201 -1024h-86l184 946h-493l-184 -946h-87zM928 1284l30 150h103l-31 -150 h-102z" />
<glyph unicode="&#xfb02;" horiz-adv-x="1107" d="M106 0l183 940h-129l14 78h129l10 51q19 95 58 167t80.5 110.5t92.5 62t86.5 29.5t69.5 6l64 -4l-19 -80q-16 4 -45 4t-58 -5t-68 -24t-71 -49.5t-60.5 -87t-43.5 -131.5l-10 -49h281l-15 -78h-280l-182 -940h-87zM721 158q0 24 6 59l238 1217h86l-234 -1203 q-6 -35 -6 -59q0 -33 9 -54.5t26 -30t30.5 -11t34.5 -2.5l27 2l-18 -80q-17 -4 -35 -4q-25 0 -49 6t-52 22t-45.5 51.5t-17.5 86.5z" />
<glyph unicode="&#xfb03;" horiz-adv-x="1714" d="M106 0l185 946h-129l14 78h129l10 51q19 93 57 163.5t80 108.5t92.5 61t86 29.5t69.5 6.5l64 -4l-19 -80q-16 4 -45 4q-30 0 -58.5 -5t-67.5 -23.5t-70.5 -49t-60.5 -88t-44 -133.5l-8 -41h547l10 51q19 93 57 163.5t80 108.5t92.5 61t86 29.5t69.5 6.5l64 -4l-19 -80 q-16 4 -45 4q-30 0 -58.5 -5t-67.5 -23.5t-70.5 -49t-60.5 -88t-44 -133.5l-8 -41h590l-201 -1024h-86l184 946h-501l-185 -946h-86l185 946h-547l-184 -946h-87zM1569 1284l30 150h103l-31 -150h-102z" />
<glyph unicode="&#xfb04;" horiz-adv-x="1740" d="M106 0l185 946h-129l14 78h129l10 51q19 93 57 163.5t80 108.5t92.5 61t86 29.5t69.5 6.5l64 -4l-19 -80q-16 4 -45 4q-30 0 -58.5 -5t-67.5 -23.5t-70.5 -49t-60.5 -88t-44 -133.5l-8 -41h547l10 51q19 93 57 163.5t80 108.5t92.5 61t86 29.5t69.5 6.5l64 -4l-19 -80 q-16 4 -45 4q-30 0 -58.5 -5t-67.5 -23.5t-70.5 -49t-60.5 -88t-44 -133.5l-8 -41h279l-15 -78h-278l-185 -946h-86l185 946h-547l-184 -946h-87zM1354 158q0 24 6 59l237 1217h86l-233 -1203q-6 -35 -6 -59q0 -33 9 -54.5t26 -30t30.5 -11t34.5 -2.5l27 2l-19 -80 q-16 -4 -34 -4q-25 0 -49 6t-52 22t-45.5 51.5t-17.5 86.5z" />
<glyph horiz-adv-x="2048" />
<glyph horiz-adv-x="2048" />
<glyph unicode="&#xd;" horiz-adv-x="2048" />
<glyph unicode=" "  horiz-adv-x="579" />
<glyph unicode="&#x09;" horiz-adv-x="579" />
<glyph unicode="&#xa0;" horiz-adv-x="579" />
<glyph unicode="!" horiz-adv-x="614" d="M127 0l27 125h120l-26 -125h-121zM213 358l211 1076h88l-211 -1076h-88z" />
<glyph unicode="&#x22;" horiz-adv-x="598" d="M250 1143l59 309h88l-59 -309h-88zM463 1143l59 309h88l-59 -309h-88z" />
<glyph unicode="#" horiz-adv-x="1499" d="M66 408l30 81h310l167 453h-309l31 82h309l152 410h90l-152 -410h387l152 410h90l-152 -410h304l-31 -82h-303l-168 -453h303l-31 -81h-303l-151 -408h-91l152 408h-387l-152 -408h-90l152 408h-309zM496 489h387l168 453h-387z" />
<glyph unicode="$" horiz-adv-x="1126" d="M51 154l66 61q5 -6 14 -16.5t42 -37t70.5 -47t99 -37t128.5 -16.5q98 0 185 41.5t142.5 120t55.5 176.5q0 66 -33.5 119t-87 88t-118.5 67t-130 65t-118.5 72t-87 98t-33.5 134q0 153 130 277.5t322 136.5l39 193h88l-37 -193q58 -4 110.5 -19t86.5 -33.5t59.5 -36 t36.5 -29.5l11 -11l-58 -70q-4 5 -12.5 12.5t-36.5 27.5t-60 35t-82.5 27.5t-103.5 12.5q-87 0 -164 -30t-128 -78t-80 -106.5t-29 -115.5q0 -59 33.5 -106t87 -80.5t118.5 -64.5t130 -66t118.5 -77t87 -105.5t33.5 -143.5q0 -106 -57 -200.5t-160 -155.5t-229 -68l-37 -188 h-88l37 193q-69 6 -132 26t-103 44.5t-70 48t-43 39.5z" />
<glyph unicode="%" horiz-adv-x="1449" d="M14 0l1356 1434h117l-1358 -1434h-115zM242 1159q0 113 96 206t217 93q105 0 168 -64t63 -167q0 -118 -95.5 -210.5t-215.5 -92.5q-107 0 -170 64t-63 171zM330 1153q0 -64 41 -105.5t108 -41.5q87 0 153 66.5t66 156.5q0 64 -41 105.5t-106 41.5q-86 0 -153.5 -67.5 t-67.5 -155.5zM705 211q0 113 96 206t217 93q105 0 168 -64t63 -167q0 -118 -95.5 -211t-215.5 -93q-107 0 -170 64t-63 172zM793 205q0 -64 41 -106t108 -42q87 0 153 67t66 157q0 64 -41 105.5t-106 41.5q-86 0 -153.5 -67.5t-67.5 -155.5z" />
<glyph unicode="&#x26;" horiz-adv-x="1363" d="M86 328q0 151 98 279.5t256 168.5v4q-6 2 -16.5 6.5t-37 24.5t-46.5 46t-36.5 74t-16.5 107q0 177 133.5 298.5t341.5 121.5q36 0 77.5 -5.5t64.5 -10.5l24 -6l-41 -76q-74 16 -127 16q-157 0 -268 -94t-111 -244q0 -34 6 -62.5t25 -59.5t50.5 -52t87.5 -35t132 -14h334 l41 209h88l-41 -209h199l-17 -82h-199l-45 -229q-104 -529 -542 -529q-194 0 -304 97t-110 256zM178 328q0 -118 85 -192.5t237 -74.5q367 0 454 443l45 229h-329q-99 0 -187 -26.5t-156.5 -76t-108.5 -127.5t-40 -175z" />
<glyph unicode="'" horiz-adv-x="385" d="M250 1143l59 309h88l-59 -309h-88z" />
<glyph unicode="(" horiz-adv-x="563" d="M152 344q0 627 411 1141h94q-421 -536 -421 -1143q0 -278 96 -537h-86q-94 257 -94 539z" />
<glyph unicode=")" horiz-adv-x="569" d="M-80 -195q422 538 422 1143q0 278 -96 537h86q94 -257 94 -539q0 -626 -412 -1141h-94z" />
<glyph unicode="*" horiz-adv-x="962" d="M195 1124l43 84l294 -110l56 336h96l-76 -336l342 108l13 -86l-342 -100v-4l145 -262l-76 -52l-139 275h-4l-244 -272l-67 53l253 268v4z" />
<glyph unicode="+" horiz-adv-x="1398" d="M158 539l14 82h485l107 538h88l-107 -538h484l-15 -82h-483l-106 -539h-88l106 539h-485z" />
<glyph unicode="," horiz-adv-x="501" d="M-53 -193l172 318h112l-194 -318h-90z" />
<glyph unicode="-" horiz-adv-x="722" d="M66 539l14 82h565l-14 -82h-565z" />
<glyph unicode="." horiz-adv-x="489" d="M70 0l24 129h125l-24 -129h-125z" />
<glyph unicode="/" horiz-adv-x="786" d="M-41 -86l829 1602h97l-830 -1602h-96z" />
<glyph unicode="0" horiz-adv-x="1280" d="M145 428q0 82 10 173t33.5 192t58 195.5t87.5 180.5t117.5 149.5t152 101.5t187.5 38q385 0 385 -457q0 -83 -10 -173.5t-33 -191t-57.5 -194t-87 -179.5t-117 -149.5t-152.5 -101t-189 -37.5q-200 0 -292.5 120t-92.5 333zM236 424q0 -363 296 -363q87 0 162 35t130 93 t100 137.5t74 165.5t48.5 178.5t28 175.5t8.5 158q0 176 -69 272t-226 96q-113 0 -207.5 -61.5t-157 -160.5t-106 -225.5t-62.5 -253t-19 -247.5z" />
<glyph unicode="1" horiz-adv-x="903" d="M2 0l14 82h326l225 1157l17 72h-4q-21 -27 -95 -88l-196 -166l-53 65l370 312h88l-264 -1352h318l-17 -82h-729z" />
<glyph unicode="2" horiz-adv-x="1140" d="M23 0q3 92 37.5 174t91.5 145t129.5 120t152.5 106.5t159.5 97.5t151.5 99.5t127.5 106.5t88 125t32.5 148q0 113 -74 181.5t-206 68.5q-64 0 -128 -21t-109.5 -50.5t-81.5 -59.5t-54 -51l-18 -21l-64 52q8 10 22 26t61.5 56.5t97.5 72t125.5 57t150.5 25.5 q184 0 277 -92t93 -242q0 -84 -30 -158.5t-81 -133t-117.5 -112.5t-142 -101t-151.5 -93t-148.5 -95t-131 -100t-100.5 -115t-56 -134h782l-16 -82h-870z" />
<glyph unicode="3" horiz-adv-x="1140" d="M12 174l70 59q5 -7 14 -18.5t42.5 -41t72.5 -52.5t103 -41.5t135 -18.5q102 0 200 53.5t163 152t65 214.5q0 132 -93.5 203.5t-234.5 71.5h-107l-12 61l494 469l75 66v4q-38 -4 -110 -4h-580l17 82h821l-12 -62l-568 -534q48 0 98 -9t106 -34t98.5 -63t71 -103t28.5 -148 q0 -133 -75.5 -251t-196.5 -186.5t-253 -68.5q-84 0 -159 20.5t-123 49.5t-83.5 58.5t-50.5 50.5z" />
<glyph unicode="4" horiz-adv-x="1204" d="M39 410l12 61l920 963h92l-184 -942h213l-17 -82h-213l-80 -410h-88l80 410h-735zM186 492h605l131 671l30 129h-4q-45 -51 -90 -98l-672 -700v-2z" />
<glyph unicode="5" horiz-adv-x="1144" d="M41 182l76 51l5 -10t16 -24t28.5 -34t42.5 -36t57 -34t73 -24t91 -10q119 0 227.5 59.5t176 164.5t67.5 227q0 134 -92.5 218.5t-241.5 84.5q-75 0 -148.5 -21.5t-110.5 -43.5l-36 -21l-63 23l215 682h668l-17 -82h-588l-133 -424l-30 -88h4q12 7 33 17t84.5 27t125.5 17 q190 0 306 -108.5t116 -280.5q0 -145 -79.5 -269.5t-209 -196t-274.5 -71.5q-61 0 -115 11.5t-92 29.5t-70.5 40t-52.5 44.5t-34 40.5t-20 29z" />
<glyph unicode="6" horiz-adv-x="1216" d="M135 483q0 72 15.5 157.5t48 179.5t78.5 184.5t111 173t141.5 144.5t174.5 99t205 37q71 0 135.5 -14t93.5 -28l29 -15l-53 -76q-9 5 -26 13t-70.5 21t-108.5 13q-120 0 -229.5 -58t-190.5 -154t-139 -210t-90 -237h4q75 91 189.5 143.5t234.5 52.5q173 0 277 -97.5 t104 -266.5q0 -103 -37.5 -204.5t-103 -183t-166 -132t-215.5 -50.5q-133 0 -227 66.5t-139.5 179.5t-45.5 262zM227 453q0 -71 20 -139t57.5 -125.5t99 -92.5t137.5 -35q182 0 309 140.5t127 343.5q0 130 -79 204t-216 74q-53 0 -114.5 -16.5t-121.5 -49.5t-109 -77 t-79.5 -103.5t-30.5 -123.5z" />
<glyph unicode="7" horiz-adv-x="1040" d="M80 0l835 1219q22 32 47.5 65.5t40.5 50.5l15 17v4q-41 -4 -113 -4h-688l16 82h908l-13 -62l-948 -1372h-100z" />
<glyph unicode="8" horiz-adv-x="1232" d="M96 344q0 81 34 158.5t77 128t99 96.5t83.5 63t46.5 27q-143 97 -143 244q0 74 34 145t95 127t152.5 90.5t197.5 34.5q184 0 281.5 -81.5t97.5 -223.5q0 -67 -27 -138t-62.5 -123.5t-79 -101t-69 -71t-39.5 -33.5q168 -107 168 -260q0 -127 -75.5 -232t-196.5 -162 t-258 -57q-178 0 -297 97t-119 272zM190 344q0 -130 93.5 -206.5t228.5 -76.5q107 0 206 43.5t164.5 128.5t65.5 191q0 43 -20 81.5t-49.5 65.5t-77 55.5t-89 48t-100.5 47.5t-96 48q-18 -10 -37 -20.5t-53 -34t-63.5 -48.5t-62.5 -61.5t-56 -74.5t-38.5 -87.5t-15.5 -99.5z M387 1063q0 -42 18.5 -79.5t45 -64t73 -55t83 -46t96 -45t92.5 -44.5q21 16 44 35.5t65 64t73.5 90t55.5 109t24 125.5q0 101 -77.5 160t-207.5 59q-166 0 -275.5 -91t-109.5 -218z" />
<glyph unicode="9" horiz-adv-x="1216" d="M92 33l53 76q9 -5 26 -13t70.5 -21.5t108.5 -13.5q97 0 187.5 38.5t162 103t131.5 150.5t101.5 178.5t66.5 189.5h-4q-75 -91 -189.5 -144t-234.5 -53q-173 0 -277 98t-104 267q0 103 37.5 204.5t103.5 182.5t166.5 131.5t215.5 50.5q132 0 226.5 -66.5t139.5 -179.5 t45 -262q0 -72 -15.5 -157.5t-48 -179.5t-78.5 -184.5t-111 -173t-141.5 -144.5t-174.5 -99t-205 -37q-71 0 -135.5 14.5t-93.5 28.5zM283 889q0 -130 77.5 -204.5t210.5 -74.5q67 0 146.5 27.5t150 74t117.5 118.5t47 151q0 71 -20 139t-57 125t-98.5 92t-137.5 35 q-182 0 -309 -140t-127 -343z" />
<glyph unicode=":" horiz-adv-x="612" d="M125 0l25 129h124l-24 -129h-125zM299 895l25 129h125l-25 -129h-125z" />
<glyph unicode=";" horiz-adv-x="624" d="M-6 -193l172 318h113l-195 -318h-90zM311 895l25 129h125l-25 -129h-125z" />
<glyph unicode="&#x3c;" horiz-adv-x="1196" d="M104 543v73l900 404v-98l-773 -340v-4l773 -340v-99z" />
<glyph unicode="=" horiz-adv-x="1458" d="M252 375v82h934v-82h-934zM252 702v82h934v-82h-934z" />
<glyph unicode="&#x3e;" horiz-adv-x="1198" d="M182 139v99l772 340v4l-772 340v98l899 -404v-73z" />
<glyph unicode="?" horiz-adv-x="960" d="M190 0l27 125h121l-27 -125h-121zM227 1362q6 4 16.5 10.5t45 23t69.5 29t86.5 23t100.5 10.5q157 0 248.5 -82t91.5 -215q0 -74 -24.5 -138t-65 -111.5t-89.5 -90t-101 -83t-97 -81.5t-80 -94.5t-47 -113.5l-19 -91h-88l19 91q15 71 50.5 133t80 107.5t95.5 87.5t99 82 t87 82.5t62.5 97.5t23.5 118q0 95 -67 155t-183 60q-68 0 -138 -21.5t-105 -42.5l-36 -22z" />
<glyph unicode="@" horiz-adv-x="1593" d="M109 356q0 116 34 230t93 211t141.5 180.5t176.5 142t201 92t212 33.5q113 0 196.5 -24t131 -66.5t69.5 -94.5t22 -116q0 -34 -6 -72l-135 -694h144l-17 -82h-526q-152 0 -247 94t-95 240q0 88 40 174t104.5 149.5t149.5 102.5t171 39h323q4 28 4 45q0 99 -76 161 t-245 62q-149 0 -291.5 -66t-248 -175.5t-170 -258.5t-64.5 -307q0 -228 142.5 -375t373.5 -147l-17 -84q-168 0 -303 78.5t-211.5 217t-76.5 310.5zM596 432q0 -110 72 -182t188 -72h297l123 635h-293q-98 0 -187.5 -53t-144.5 -141.5t-55 -186.5z" />
<glyph unicode="A" horiz-adv-x="1243" d="M-74 0l813 1434h92l261 -1434h-91l-88 496h-608l-280 -496h-99zM350 578h547l-102 581l-25 172h-4q-51 -111 -86 -172z" />
<glyph unicode="B" horiz-adv-x="1271" d="M102 0l281 1434h461q84 0 151 -25q81 -33 125.5 -101.5t44.5 -166.5q0 -137 -71 -237.5t-185 -145.5v-4q79 -28 128.5 -102.5t49.5 -182.5q0 -148 -73 -261t-193 -167q-86 -41 -196 -41h-523zM207 82h405q96 0 162 31q100 44 160.5 137t60.5 217q0 115 -70.5 180.5 t-191.5 65.5h-403zM346 795h389q138 0 238 97.5t100 248.5q0 98 -60 154.5t-169 56.5h-389z" />
<glyph unicode="C" horiz-adv-x="1507" d="M133 586q0 140 46.5 274t128.5 240.5t188.5 188t234 125.5t256.5 44q96 0 182.5 -18.5t140.5 -45t94 -53t58 -45.5l17 -18l-62 -64q-6 7 -17 17.5t-50.5 38t-85.5 48.5t-121 38.5t-156 17.5q-145 0 -284.5 -62t-244.5 -167t-169 -252t-64 -307q0 -230 141 -378.5 t371 -148.5q86 0 171.5 20t146 48.5t109 57.5t72.5 49l24 20l51 -68q-10 -9 -28 -23t-77 -50.5t-122 -64t-158 -50.5t-189 -23q-185 0 -323 79.5t-209.5 217.5t-71.5 314z" />
<glyph unicode="D" horiz-adv-x="1517" d="M102 0l281 1434h428q287 0 449.5 -145t162.5 -408q0 -180 -63 -341.5t-174 -280.5t-271 -189t-344 -70h-469zM205 82h348q165 0 309.5 61t247 166.5t162 253t59.5 314.5q0 228 -140.5 351.5t-389.5 123.5h-346z" />
<glyph unicode="E" horiz-adv-x="1165" d="M102 0l281 1434h784l-18 -82h-694l-115 -588h571l-16 -82h-569l-119 -600h733l-14 -82h-824z" />
<glyph unicode="F" horiz-adv-x="1052" d="M102 0l281 1434h723l-16 -82h-635l-117 -598h549l-17 -82h-548l-132 -672h-88z" />
<glyph unicode="G" horiz-adv-x="1554" d="M131 567q0 141 45.5 276t127.5 245t188.5 194t235.5 130t261 46q92 0 176 -16.5t138 -40t95 -47t59 -40.5l18 -16l-62 -65q-6 6 -18 15.5t-52.5 33.5t-86 43t-118 34t-149.5 15q-148 0 -288.5 -65t-245.5 -173.5t-168.5 -258.5t-63.5 -310q0 -225 136.5 -366.5 t361.5 -141.5q88 0 176 26t151 63t114 74t76 63l26 26l51 260h-254l14 82h344l-127 -653h-88l25 127l14 61h-4q-9 -9 -25 -23t-69 -51t-110 -65t-143 -51t-171 -23q-265 0 -427.5 166t-162.5 426z" />
<glyph unicode="H" horiz-adv-x="1529" d="M102 0l281 1434h88l-131 -674h909l131 674h88l-280 -1434h-88l133 678h-909l-134 -678h-88z" />
<glyph unicode="I" horiz-adv-x="532" d="M102 0l281 1434h88l-281 -1434h-88z" />
<glyph unicode="J" horiz-adv-x="1044" d="M23 285q0 39 12 106l8 45h88l-8 -45q-10 -52 -10 -92q0 -240 237 -240q44 0 86.5 10t87 35t80.5 62t64.5 95t42.5 130l184 961h-340l16 82h428l-204 -1055q-21 -110 -68.5 -191t-110.5 -126t-129 -66t-137 -21q-67 0 -124 17.5t-103.5 53t-73 97t-26.5 142.5z" />
<glyph unicode="K" horiz-adv-x="1187" d="M102 0l281 1434h88l-125 -639h258l543 639h106l-575 -678v-4l323 -752h-96l-303 713h-272l-140 -713h-88z" />
<glyph unicode="L" horiz-adv-x="1028" d="M102 0l281 1434h88l-264 -1352h684l-19 -82h-770z" />
<glyph unicode="M" horiz-adv-x="1734" d="M57 0l398 1434h80l241 -902l39 -161h4q54 89 101 161l593 902h91l-166 -1434h-88l127 1094l30 190h-4q-63 -120 -110 -190l-543 -818h-90l-225 818q-8 30 -18 78.5t-17 81.5l-6 34h-5q-20 -124 -38 -194l-306 -1094h-88z" />
<glyph unicode="N" horiz-adv-x="1529" d="M102 0l281 1434h72l598 -1125q16 -29 36.5 -74t32.5 -75l13 -31h4q8 108 22 180l219 1125h88l-280 -1434h-72l-598 1124q-16 29 -36.5 74.5t-33.5 75.5l-12 31h-4q-8 -109 -22 -181l-220 -1124h-88z" />
<glyph unicode="O" horiz-adv-x="1695" d="M131 590q0 172 74.5 333.5t194.5 278t278 186.5t319 70q270 0 440.5 -168t170.5 -430q0 -175 -75 -339.5t-195.5 -283.5t-278.5 -190.5t-318 -71.5q-270 0 -440 172.5t-170 442.5zM223 590q0 -233 144.5 -382t373.5 -149q142 0 283 64.5t249 171t175.5 255.5t67.5 308 q0 226 -145 371t-374 145q-145 0 -286 -63t-248 -167.5t-173.5 -250.5t-66.5 -303z" />
<glyph unicode="P" horiz-adv-x="1220" d="M102 0l281 1434h448q143 0 230 -50q74 -42 116 -116t42 -170q0 -161 -84 -285t-217 -180q-95 -39 -207 -39h-404l-117 -594h-88zM324 676h378q102 0 181 33q110 46 176.5 147.5t66.5 241.5q0 121 -78 187.5t-217 66.5h-376z" />
<glyph unicode="Q" horiz-adv-x="1718" d="M131 590q0 172 74.5 333.5t194.5 278t278 186.5t319 70q270 0 440.5 -168t170.5 -430q0 -185 -80.5 -354.5t-218.5 -296.5l141 -186l-61 -54l-144 189q-112 -87 -242 -135t-262 -48q-270 0 -440 172.5t-170 442.5zM223 590q0 -233 144.5 -382t373.5 -149q243 0 455 166 l-147 195l61 53l147 -197q119 114 189 266t70 316q0 226 -145 371t-374 145q-145 0 -286 -63t-248 -167.5t-173.5 -250.5t-66.5 -303z" />
<glyph unicode="R" horiz-adv-x="1265" d="M104 0l279 1434h455q124 0 198 -39t116 -112.5t42 -168.5q0 -177 -108 -304t-271 -159v-4q9 -16 21 -51l208 -596h-94l-221 635h-414l-122 -635h-89zM332 717h379q164 0 277.5 111t113.5 286q0 111 -69.5 174.5t-194.5 63.5h-383z" />
<glyph unicode="S" horiz-adv-x="1093" d="M35 154l65 61q5 -6 14 -16.5t42 -37t71 -47t99.5 -37t128.5 -16.5q98 0 185 41.5t142.5 120t55.5 176.5q0 66 -33.5 119t-87.5 88t-118.5 67t-129.5 65t-119 72t-87.5 98t-33.5 134q0 77 37.5 152t101 133.5t156.5 94.5t197 36q68 0 129.5 -13.5t100.5 -33t68.5 -38.5 t42.5 -33l13 -13l-57 -70q-4 5 -12.5 12.5t-36.5 27.5t-60 35t-82.5 27.5t-103.5 12.5q-87 0 -164 -30t-128 -78t-80 -106.5t-29 -115.5q0 -59 33.5 -106t87 -80.5t118.5 -64.5t130 -66t118.5 -77t87 -105.5t33.5 -143.5q0 -82 -36.5 -159.5t-98.5 -135.5t-151.5 -93.5 t-188.5 -35.5q-59 0 -114 10t-96 25.5t-76.5 34.5t-59.5 38.5t-41 35t-25 25.5z" />
<glyph unicode="T" horiz-adv-x="1187" d="M156 1352l14 82h1157l-14 -82h-537l-262 -1352h-88l262 1352h-532z" />
<glyph unicode="U" horiz-adv-x="1472" d="M168 383q0 55 12 117l182 934h89l-183 -936q-10 -46 -10 -107q0 -157 98 -244.5t275 -87.5q203 0 347 119t185 324l183 932h88l-189 -953q-45 -235 -211.5 -370.5t-402.5 -135.5q-214 0 -338.5 109t-124.5 299z" />
<glyph unicode="V" horiz-adv-x="1234" d="M190 1434h89l204 -1160l23 -172h4q51 104 90 172l657 1160h99l-815 -1434h-97z" />
<glyph unicode="W" horiz-adv-x="1873" d="M248 1434h88l74 -1168l4 -153h4q36 81 71 153l570 1168h102l80 -1168l4 -153h4q35 83 66 153l530 1168h99l-658 -1434h-110l-78 1081q-3 41 -4.5 98t-1.5 93v37h-5q-57 -134 -102 -226l-532 -1083h-107z" />
<glyph unicode="X" horiz-adv-x="1167" d="M-53 0l608 764l-281 670h95l186 -453l66 -160h4q59 86 116 156l369 457h111l-553 -684l321 -750h-94l-229 539l-62 153h-4q-56 -79 -113 -149l-436 -543h-104z" />
<glyph unicode="Y" horiz-adv-x="1126" d="M184 1434h95l227 -566l59 -161h4q64 87 119 159l449 568h108l-645 -813l-123 -621h-88l123 623z" />
<glyph unicode="Z" horiz-adv-x="1193" d="M-29 0l15 70l1001 1151q28 33 59.5 65.5t48.5 49.5l17 16v4q-30 -4 -102 -4h-734l19 82h948l-14 -70l-1004 -1151q-28 -33 -59 -65.5t-48 -49.5l-18 -16v-4q31 4 103 4h780l-14 -82h-998z" />
<glyph unicode="[" horiz-adv-x="544" d="M70 -195l325 1680h221l-16 -82h-133l-293 -1516h133l-16 -82h-221z" />
<glyph unicode="\" horiz-adv-x="772" d="M252 1516h86l205 -1602h-86z" />
<glyph unicode="]" horiz-adv-x="544" d="M-59 -195l16 82h133l293 1516h-133l16 82h221l-325 -1680h-221z" />
<glyph unicode="^" horiz-adv-x="1228" d="M39 516l403 918h66l403 -918h-94l-342 795l-342 -795h-94z" />
<glyph unicode="_" horiz-adv-x="1173" d="M-55 -82l14 82h1016l-14 -82h-1016z" />
<glyph unicode="`" horiz-adv-x="1042" d="M309 1763h107l92 -227h-82z" />
<glyph unicode="a" horiz-adv-x="1056" d="M29 231q0 80 31 144t86.5 106t122.5 71.5t149 44.5t155 21.5t152 6.5h80q14 79 14 131q0 99 -52.5 154t-176.5 55q-50 0 -100.5 -10t-86.5 -24.5t-65 -29.5t-44 -25l-15 -10l-37 78l16.5 11t45.5 25.5t72.5 32t96 25t117.5 11.5q156 0 237.5 -70.5t81.5 -210.5 q0 -52 -12 -117l-127 -651h-86l27 133q4 24 10 47.5t10 35.5l4 11h-4q2 0 -13.5 -26t-48.5 -63t-78 -74t-113 -63t-142 -26q-131 0 -219 69t-88 187zM119 240q0 -78 57.5 -131.5t167.5 -53.5q78 0 152.5 40.5t130.5 105t96 142t57 155.5l11 47h-66q-606 0 -606 -305z" />
<glyph unicode="b" horiz-adv-x="1189" d="M61 0l279 1434h86l-100 -523q-4 -21 -11.5 -44.5t-12.5 -36.5l-5 -13h4q58 102 165.5 167t229.5 65q178 0 275.5 -108t97.5 -296q0 -144 -47 -270.5t-124 -213t-178 -136.5t-208 -50q-123 0 -211.5 60.5t-118.5 171.5h-4q0 -48 -10 -101l-21 -106h-86zM231 377 q0 -140 70.5 -229t210.5 -89q83 0 165.5 40.5t150 113t109.5 184.5t42 244q0 151 -75.5 237.5t-207.5 86.5q-84 0 -159.5 -34.5t-130.5 -93t-95 -134t-60 -159.5t-20 -167z" />
<glyph unicode="c" horiz-adv-x="1132" d="M80 403q0 141 55.5 264.5t144.5 205.5t200.5 129t224.5 47q71 0 134 -15t102.5 -36.5t69 -43t41.5 -36.5l13 -15l-61 -63q-4 5 -12 13.5t-35.5 30t-58.5 38t-82.5 30t-106.5 13.5q-97 0 -193 -40.5t-173 -111.5t-125 -176.5t-48 -224.5q0 -160 103.5 -256.5t261.5 -96.5 q63 0 124.5 15t104 37t75.5 44t49 37l17 15l33 -78q-6 -6 -18 -16.5t-52.5 -37t-84 -47t-110 -37t-134.5 -16.5q-201 0 -330 116.5t-129 311.5z" />
<glyph unicode="d" d="M82 379q0 144 47 270.5t124 213t178 136.5t208 50q122 0 211 -60.5t119 -171.5h4q0 47 10 94l102 523h86l-278 -1434h-86l22 119q4 21 10 43t11 34l4 11h-4q-57 -97 -160 -164.5t-233 -67.5q-181 0 -278 107.5t-97 296.5zM172 383q0 -151 76 -237.5t209 -86.5 q84 0 159.5 35.5t129.5 95t94 135.5t60 159t20 163q0 139 -71 228.5t-210 89.5q-83 0 -165.5 -41t-150 -113.5t-109.5 -184.5t-42 -243z" />
<glyph unicode="e" horiz-adv-x="1134" d="M82 403q0 122 45 239t122.5 207t190 145t238.5 55q177 0 266.5 -99t89.5 -264q0 -34 -6.5 -74t-13.5 -63l-6 -23h-822q-12 -58 -12 -112q0 -155 94 -255t267 -100q55 0 110 13.5t95 32.5t72 37.5t48 31.5l17 14l32 -77q-7 -6 -19 -15t-51 -32.5t-80.5 -41.5t-102.5 -32.5 t-121 -14.5q-200 0 -326.5 116.5t-126.5 311.5zM207 606h727q8 39 8 86q0 137 -73 207t-191 70q-96 0 -186.5 -40t-167 -123.5t-117.5 -199.5z" />
<glyph unicode="f" horiz-adv-x="632" d="M106 0l183 940h-129l14 78h129l10 51q19 95 58 167t80.5 110.5t92.5 62t86.5 29.5t69.5 6l64 -4l-19 -80q-16 4 -45 4t-58 -5t-68 -24t-71 -49.5t-60.5 -87t-43.5 -131.5l-10 -49h281l-15 -78h-280l-182 -940h-87z" />
<glyph unicode="g" horiz-adv-x="1175" d="M18 -350l50 71q13 -8 37 -19t94 -29.5t135 -18.5q173 0 296.5 88t160.5 264l22 109q4 21 10.5 44.5t11.5 36.5l5 13h-4q-131 -209 -365 -209q-178 0 -282.5 108t-104.5 293q0 87 22 177.5t67.5 175t108 150t150.5 105.5t189 40q58 0 109.5 -10.5t98.5 -33t81 -62.5 t48 -95h5q-2 24 2 49l24 127h86l-198 -1028q-18 -91 -56.5 -164t-89.5 -121.5t-115 -80.5t-131.5 -46t-140.5 -14q-179 0 -326 80zM174 403q0 -150 79.5 -234.5t219.5 -84.5q87 0 161 38t124 100t85.5 141.5t51.5 162.5t16 164q0 144 -77 209.5t-209 65.5q-104 0 -191.5 -50 t-143 -131t-86 -180t-30.5 -201z" />
<glyph unicode="h" horiz-adv-x="1202" d="M61 0l279 1434h86l-111 -580l-26 -94h4q22 43 63.5 90.5t101 93.5t143 75.5t171.5 29.5q140 0 212.5 -66.5t72.5 -191.5q0 -55 -17 -142l-125 -649h-86l119 618q19 101 19 156q0 95 -53 143t-144 48q-93 0 -182.5 -39.5t-159 -106t-119.5 -155t-69 -185.5l-93 -479h-86z " />
<glyph unicode="i" horiz-adv-x="448" d="M61 0l201 1024h86l-201 -1024h-86zM303 1284l31 150h102l-30 -150h-103z" />
<glyph unicode="j" horiz-adv-x="448" d="M-307 -416l16 80q16 -4 45 -4t57.5 5t68 24t71 49t60.5 87t44 132l207 1067h86l-207 -1065q-19 -97 -55.5 -169.5t-76.5 -111.5t-89 -62t-84.5 -29.5t-71.5 -6.5zM303 1284l29 150h102l-28 -150h-103z" />
<glyph unicode="k" horiz-adv-x="980" d="M61 0l281 1434h86l-160 -813h174l414 403h117l-455 -442v-4l291 -578h-98l-269 541h-188l-107 -541h-86z" />
<glyph unicode="l" horiz-adv-x="475" d="M88 158q0 24 6 59l238 1217h86l-234 -1203q-6 -35 -6 -59q0 -33 9 -54.5t26 -30t31 -11t35 -2.5l26 2l-18 -80q-17 -4 -35 -4q-25 0 -49 6t-52 22t-45.5 51.5t-17.5 86.5z" />
<glyph unicode="m" horiz-adv-x="1882" d="M61 0l199 1024h86l-33 -170l-26 -94h4q61 122 188.5 205.5t261.5 83.5q146 0 207.5 -70.5t61.5 -208.5h4q64 121 186 200t254 79q139 0 211 -69.5t72 -195.5q0 -52 -17 -135l-125 -649h-86l119 618q19 101 19 150q0 96 -47 148.5t-158 52.5q-87 0 -169.5 -43t-143 -111.5 t-102.5 -150.5t-58 -164l-97 -500h-86l119 618q19 101 19 156q0 92 -44.5 143.5t-152.5 51.5q-86 0 -169 -41.5t-145.5 -108.5t-107 -151t-61.5 -170l-97 -498h-86z" />
<glyph unicode="n" horiz-adv-x="1202" d="M61 0l199 1024h86l-31 -170q-4 -21 -11 -44.5t-12 -36.5l-5 -13h4q17 34 46 71t74.5 76.5t98 70.5t121.5 51t141 20q140 0 212.5 -66.5t72.5 -191.5q0 -55 -17 -142l-125 -649h-86l119 618q19 101 19 156q0 95 -53 143t-144 48q-125 0 -238.5 -67.5t-190 -178 t-101.5 -240.5l-93 -479h-86z" />
<glyph unicode="o" horiz-adv-x="1275" d="M80 420q0 127 53.5 244.5t140 201t201 133.5t232.5 50q201 0 326.5 -123.5t125.5 -315.5q0 -128 -54 -247t-141 -203t-201 -134.5t-231 -50.5q-201 0 -326.5 125t-125.5 320zM170 422q0 -159 101 -261t261 -102q99 0 196 43.5t172.5 116.5t122 176t46.5 213 q0 156 -101 256.5t-261 100.5q-136 0 -259.5 -72.5t-200.5 -199t-77 -271.5z" />
<glyph unicode="p" d="M-18 -410l278 1434h86l-20 -113q-4 -21 -10 -44t-10 -35l-5 -13h4q58 99 158.5 164.5t232.5 65.5q179 0 277 -108t98 -296q0 -144 -46.5 -270.5t-123.5 -213t-177 -136.5t-206 -50q-124 0 -214 59.5t-120 172.5h-4q-2 -48 -12 -101l-100 -516h-86zM233 383 q0 -140 72.5 -232t208.5 -92q83 0 165.5 40.5t150 113t109.5 184.5t42 244q0 151 -76 237.5t-209 86.5q-103 0 -192.5 -53.5t-147.5 -138t-90.5 -187t-32.5 -203.5z" />
<glyph unicode="q" d="M82 377q0 145 47 272t124.5 213.5t179 136.5t208.5 50q122 0 210 -60t118 -170h4q2 35 10 82l23 123h86l-279 -1434h-86l100 516q4 24 11.5 49t12.5 39l5 13h-4q-59 -100 -159.5 -166t-235.5 -66q-179 0 -277 107.5t-98 294.5zM172 383q0 -151 76.5 -237.5t208.5 -86.5 q84 0 159.5 35.5t130 95t95 135.5t60.5 159t20 163q0 139 -71 228.5t-210 89.5q-83 0 -166 -41t-150.5 -113.5t-110 -184.5t-42.5 -243z" />
<glyph unicode="r" horiz-adv-x="696" d="M61 0l199 1024h86l-37 -184l-26 -95h4q60 123 159 205t222 82q26 0 61 -6l-18 -86q-32 4 -45 4q-72 0 -138 -37.5t-114.5 -96.5t-88.5 -134.5t-64.5 -146.5t-37.5 -138l-76 -391h-86z" />
<glyph unicode="s" horiz-adv-x="903" d="M8 123l60 59q4 -5 12 -13.5t35.5 -29.5t59.5 -37t84.5 -29.5t109.5 -13.5q105 0 190.5 60.5t85.5 163.5q0 43 -26.5 77t-69 57.5t-94 45.5t-102.5 46.5t-93.5 54.5t-69 75.5t-26.5 103.5q0 73 32 133t85 96.5t116.5 56.5t130.5 20q59 0 111 -11.5t84.5 -27.5t56.5 -32.5 t34 -27.5l11 -12l-59 -64q-3 4 -9 10t-27.5 21.5t-46.5 27.5t-67.5 22t-89.5 10t-93 -12.5t-87 -37t-66.5 -68t-25.5 -99.5q0 -51 35.5 -90.5t89 -63.5t116 -53t116 -58.5t89 -81t35.5 -118.5q0 -86 -51.5 -157.5t-134.5 -111t-178 -39.5q-71 0 -134.5 15t-103.5 37 t-69.5 44t-42.5 37z" />
<glyph unicode="t" horiz-adv-x="641" d="M141 940l15 78h135l57 291h86l-57 -291h268l-14 -78h-269l-108 -563q-10 -49 -10 -101q0 -204 182 -204l59 4l-16 -80q-16 -4 -43 -4q-268 0 -268 280q0 52 12 119l106 549h-135z" />
<glyph unicode="u" d="M106 233q0 55 17 142l125 649h86l-119 -614q-18 -89 -18 -160q0 -91 45 -141t157 -50q93 0 181.5 43t155 112.5t113.5 157t64 177.5l93 475h86l-199 -1024h-86l33 170l26 94h-4q-23 -44 -63 -90t-99 -93t-142 -76.5t-173 -29.5q-122 0 -200.5 62.5t-78.5 195.5z" />
<glyph unicode="v" horiz-adv-x="958" d="M109 1024h88l155 -809q4 -22 8 -49.5t6 -44.5l1 -17h4q30 62 59 111l469 809h96l-600 -1024h-82z" />
<glyph unicode="w" horiz-adv-x="1632" d="M115 1024h88l123 -809l12 -111h4q30 62 57 111l435 805h100l123 -805q4 -22 7.5 -49.5t5.5 -44.5l1 -17h4q28 60 55 111l439 809h94l-559 -1024h-92l-131 801l-13 110h-4q-30 -61 -57 -110l-434 -801h-97z" />
<glyph unicode="x" horiz-adv-x="976" d="M-53 0l479 545l-250 479h100l183 -371l24 -57h2q20 24 43 51l322 377h108l-430 -489l275 -535h-96l-209 422l-29 59h-4q-16 -22 -41 -53l-369 -428h-108z" />
<glyph unicode="y" horiz-adv-x="1003" d="M-182 -373l49 68q5 -5 14 -12t40 -19t65 -12q72 0 128.5 49t108.5 133l109 174l-230 1016h91l178 -831l18 -97h2q26 48 55 97l500 831h98l-776 -1270q-114 -184 -282 -184q-47 0 -89 14t-61 28z" />
<glyph unicode="z" horiz-adv-x="1021" d="M-27 0l13 70l766 780q90 94 96 94v4q-35 -4 -103 -4h-563l15 80h790l-14 -70l-768 -780q-22 -22 -46 -45t-38.5 -36.5t-14.5 -12.5v-4q37 4 105 4h614l-14 -80h-838z" />
<glyph unicode="{" horiz-adv-x="661" d="M113 616l16 82q7 1 19.5 4t45.5 19t60.5 40t55.5 72t40 109l33 166q20 102 58 176.5t75 111.5t84.5 58t75.5 25t59 4h17l-15 -80h-10q-18 0 -37 -3t-54 -19.5t-63.5 -45.5t-57.5 -87.5t-44 -137.5l-37 -190q-12 -61 -38.5 -110.5t-55.5 -76.5t-56 -45t-45 -24l-18 -5v-4 q5 -2 13 -7t28 -23t35.5 -39t28 -57t12.5 -76q0 -28 -6 -58l-43 -217q-13 -67 -13 -106q0 -50 13 -87t30.5 -55.5t41.5 -29t39.5 -13t31.5 -2.5h10l-16 -80q-6 -2 -18 -2q-19 0 -42 4t-56 20t-59 41.5t-44.5 74.5t-18.5 114q0 39 15 123l37 193q6 38 6 65q0 44 -13.5 78.5 t-33 52.5t-39.5 29.5t-34 14.5z" />
<glyph unicode="|" horiz-adv-x="612" d="M266 -317v1925h88v-1925h-88z" />
<glyph unicode="}" horiz-adv-x="659" d="M-78 -197l15 82h10q19 0 38.5 3t54.5 19.5t63 45.5t56.5 87.5t43.5 137.5l41 215q12 64 38.5 115t55.5 78t56 45t45 23l18 5v5q-5 2 -12.5 7t-27.5 22t-35 37.5t-27.5 55.5t-12.5 74q0 28 6 58l37 192q12 62 12 107q0 50 -13 86.5t-30.5 55t-41.5 29.5t-39 13t-31 2h-11 l17 80q8 2 18 2q19 0 42 -4t56 -20t58.5 -41.5t44 -74.5t18.5 -114q0 -44 -14 -123l-33 -168q-6 -38 -6 -66q0 -44 13.5 -78.5t33 -52.5t39.5 -29.5t34 -14.5l13 -3l-16 -82q-7 -1 -19.5 -4t-45.5 -19t-60.5 -39.5t-55.5 -71.5t-40 -109l-37 -191q-15 -74 -38.5 -134 t-49.5 -98.5t-58 -67t-59 -43t-58 -22.5t-49.5 -10t-39.5 -2h-17z" />
<glyph unicode="~" horiz-adv-x="1196" d="M145 436q0 152 64.5 223.5t171.5 71.5q54 0 98.5 -16.5t72 -41.5t56.5 -54.5t53 -54.5t61 -41.5t81 -16.5q48 0 81 23t47.5 60.5t19.5 69t5 64.5h82q0 -152 -64 -223.5t-171 -71.5q-54 0 -98.5 16.5t-72 41.5t-56.5 54.5t-53 54.5t-61 41.5t-81 16.5q-39 0 -68.5 -16.5 t-45 -39.5t-25.5 -55t-12.5 -56.5t-2.5 -49.5h-82z" />
<glyph unicode="&#xa1;" horiz-adv-x="534" d="M25 -410l211 1076h88l-211 -1076h-88zM262 899l27 125h121l-27 -125h-121z" />
<glyph unicode="&#xa2;" horiz-adv-x="1167" d="M139 569q0 94 22.5 191.5t69.5 189.5t112 165t156.5 119.5t196.5 51.5l33 172h88l-35 -174q56 -7 104 -26.5t80 -45t58 -55t41 -58t24.5 -51.5t12.5 -37l4 -14l-84 -32q-2 10 -6.5 26t-25 56.5t-50 72t-85.5 57t-126 25.5q-151 0 -266 -91.5t-172.5 -235t-57.5 -312.5 q0 -153 76 -242.5t232 -89.5q68 0 132.5 24.5t107 59.5t75.5 70t48 59l16 25l84 -33q-3 -6 -9.5 -16t-28 -39t-46 -55.5t-64 -59.5t-81.5 -57.5t-98.5 -42.5t-115.5 -21l-33 -172h-88l33 174q-157 19 -245.5 128.5t-88.5 293.5z" />
<glyph unicode="&#xa3;" horiz-adv-x="1179" d="M6 0l17 82h131l116 600h-92l17 82h90l67 342q28 147 157 249.5t298 102.5q55 0 105.5 -11t84 -26.5t59 -31t36.5 -26.5l12 -11l-68 -62q-3 3 -9.5 8.5t-28.5 20t-47 25t-64 19.5t-80 9q-147 0 -246.5 -82.5t-122.5 -202.5l-63 -323h405l-16 -82h-406l-116 -600h719 l-17 -82h-938z" />
<glyph unicode="&#xa5;" horiz-adv-x="1212" d="M199 455l14 82h334l18 86l-41 98h-274l16 82h226l-256 631h96l225 -566l61 -161h5q61 87 116 159l449 568h108l-501 -631h221l-17 -82h-270l-76 -98l-18 -86h328l-15 -82h-327l-91 -455h-88l90 455h-333z" />
<glyph unicode="&#xa7;" horiz-adv-x="806" d="M6 -57l62 61q6 -5 16 -13t44.5 -21t70.5 -13q119 0 196.5 78.5t83.5 195.5l58 973h86l-54 -985q-8 -141 -111.5 -243.5t-260.5 -102.5q-54 0 -101.5 17.5t-68.5 35.5zM201 127l53 985q8 141 112 243.5t261 102.5q34 0 66 -7t53.5 -17t38 -20.5t24.5 -17.5l8 -7l-61 -62 q-6 5 -16 13t-44.5 21t-70.5 13q-119 0 -197 -78.5t-84 -195.5l-57 -973h-86z" />
<glyph unicode="&#xa8;" horiz-adv-x="1042" d="M215 1614l29 149h94l-29 -149h-94zM496 1614l28 149h94l-28 -149h-94z" />
<glyph unicode="&#xa9;" horiz-adv-x="1738" d="M162 717q0 152 57 289.5t153.5 236.5t230 157t280.5 58q150 0 285 -58t232.5 -157t154.5 -236t57 -290t-57 -291t-154.5 -236.5t-232.5 -156.5t-285 -58q-197 0 -362.5 98t-262 269t-96.5 375zM254 717q0 -183 83 -333.5t227.5 -236.5t318.5 -86q177 0 323.5 86 t230 236.5t83.5 333.5q0 136 -49.5 257.5t-134 208.5t-202.5 138t-251 51q-174 0 -318.5 -86t-227.5 -236.5t-83 -332.5zM467 715q0 82 28.5 158.5t81.5 138t139 98.5t191 37q60 0 116 -18.5t94 -45t67.5 -53t43.5 -44.5l13 -19l-67 -60q-4 6 -11.5 16.5t-33.5 36.5t-55 46 t-74 36.5t-91 16.5q-165 0 -257.5 -101.5t-92.5 -240.5q0 -65 22.5 -125.5t64.5 -109t110.5 -78t152.5 -29.5q48 0 92.5 15.5t74.5 37.5t53 44.5t34 37.5l11 16l67 -59q-5 -7 -14.5 -19.5t-42 -43.5t-68.5 -54.5t-93 -43t-116 -19.5q-106 0 -191.5 36.5t-139 97.5 t-81.5 136.5t-28 157.5z" />
<glyph unicode="&#xaa;" horiz-adv-x="878" d="M164 539l14 75h518l-14 -75h-518zM250 950q0 50 19 90t47 65.5t70 44.5t79.5 28t84 14.5t73.5 6.5t59 1h43l2 10q15 80 -15.5 124t-107.5 44q-44 0 -91 -15t-72 -29l-25 -15l-35 65q11 8 31 19.5t79 31t115 19.5q207 0 207 -184q0 -37 -10 -82l-78 -393h-80l21 104h-4 q-3 -5 -9.5 -13t-28 -28t-45.5 -35.5t-60.5 -28t-74.5 -12.5q-74 0 -134 43t-60 125zM338 956q0 -43 31 -70.5t92 -27.5q58 0 114.5 45.5t89.5 101t42 101.5l4 20h-27q-346 0 -346 -170z" />
<glyph unicode="&#xab;" horiz-adv-x="997" d="M102 584l394 415h116l-407 -426l258 -415h-98zM420 584l418 415h116l-432 -426l258 -415h-98z" />
<glyph unicode="&#xac;" horiz-adv-x="1337" d="M203 702v82h934v-448h-86v366h-848z" />
<glyph unicode="&#xad;" horiz-adv-x="884" d="M33 539l14 82h565l-14 -82h-565z" />
<glyph unicode="&#xae;" horiz-adv-x="1738" d="M162 717q0 152 57 289.5t153.5 236.5t230 157t280.5 58q150 0 285 -58t232.5 -157t154.5 -236t57 -290t-57 -291t-154.5 -236.5t-232.5 -156.5t-285 -58q-197 0 -362.5 98t-262 269t-96.5 375zM254 717q0 -183 83 -333.5t227.5 -236.5t318.5 -86q177 0 323.5 86 t230 236.5t83.5 333.5q0 136 -49.5 257.5t-134 208.5t-202.5 138t-251 51q-174 0 -318.5 -86t-227.5 -236.5t-83 -332.5zM645 307v819h273q105 0 171 -65t66 -172q0 -87 -45.5 -145t-112.5 -74v-4q9 -10 27 -45l162 -314h-101l-174 342h-176v-342h-90zM735 727h172 q71 0 113.5 43.5t42.5 118.5q0 73 -42.5 114t-113.5 41h-172v-317z" />
<glyph unicode="&#xaf;" horiz-adv-x="1042" d="M164 1610l14 82h490l-15 -82h-489z" />
<glyph unicode="&#xb0;" horiz-adv-x="761" d="M217 1149q0 119 96 212t217 93q102 0 167 -65t65 -164q0 -120 -97 -212.5t-214 -92.5q-104 0 -169 64.5t-65 164.5zM305 1149q0 -64 41 -106t109 -42q87 0 153 67t66 157q0 64 -41.5 105.5t-106.5 41.5q-87 0 -154 -67t-67 -156z" />
<glyph unicode="&#xb1;" horiz-adv-x="1443" d="M170 539v82h485v538h88v-538h484v-82h-484v-539h-88v539h-485zM211 -231h975v-82h-975v82z" />
<glyph unicode="&#xb2;" horiz-adv-x="770" d="M6 866q2 79 35.5 145t85 112t113.5 86.5t123 77.5t111.5 75t82 88t31.5 109q0 62 -42 102.5t-114 40.5q-52 0 -105 -26t-81 -52l-27 -25l-43 58l13 13t35 28.5t55.5 36t71 28.5t83.5 13q115 0 174.5 -59.5t59.5 -153.5q0 -68 -27.5 -124.5t-72 -96.5t-99.5 -76 t-113.5 -70t-109.5 -69.5t-91 -83.5t-55 -103h465l-14 -74h-545z" />
<glyph unicode="&#xb3;" horiz-adv-x="770" d="M25 979l61 49q3 -4 9.5 -11.5t28 -26t46 -33t63.5 -26t80 -11.5q93 0 167.5 71t74.5 172q0 73 -55.5 116.5t-130.5 43.5h-66l-14 49l272 260l62 51v5q-37 -7 -78 -7h-336l14 74h522l-10 -53l-323 -307q25 -2 52.5 -9.5t58.5 -25.5t55.5 -42.5t40.5 -65t16 -89.5 q0 -125 -97 -221t-227 -96q-52 0 -100 13.5t-80.5 33t-57.5 39.5t-37 34z" />
<glyph unicode="&#xb4;" horiz-adv-x="1042" d="M256 1536l182 227h123l-207 -227h-98z" />
<glyph unicode="&#xb6;" horiz-adv-x="1132" d="M170 899q0 141 82.5 266t213.5 197t271 72h451l-14 -82h-343l-282 -1454h-86l115 596q-165 0 -286.5 116t-121.5 289zM676 -102l256 1325h86l-256 -1325h-86z" />
<glyph unicode="&#xb7;" horiz-adv-x="567" d="M201 520l24 129h125l-24 -129h-125z" />
<glyph unicode="&#xb8;" horiz-adv-x="1042" d="M217 -408l16 76q33 -10 80 -10q50 0 88.5 20.5t38.5 67.5q0 30 -28.5 48t-81.5 18l-25 -2l92 227l64 -10l-2 -17l-51 -133q50 -8 83 -42t33 -89q0 -54 -33.5 -93t-79.5 -55t-96 -16q-27 0 -51.5 2.5t-35.5 5.5z" />
<glyph unicode="&#xb9;" horiz-adv-x="770" d="M63 866l15 74h196l127 659l13 46h-4q-11 -17 -56 -56l-104 -86l-45 60l229 192h78l-160 -815h191l-15 -74h-465z" />
<glyph unicode="&#xba;" horiz-adv-x="978" d="M174 539l14 75h603l-15 -75h-602zM246 1061q0 105 56 197t146 145t187 53q127 0 208 -78.5t81 -197.5q0 -106 -57 -198.5t-147.5 -145t-187.5 -52.5q-127 0 -206.5 78t-79.5 199zM326 1067q0 -92 57 -149.5t149 -57.5q119 0 215.5 94t96.5 224q0 89 -58.5 145.5 t-150.5 56.5q-121 0 -215 -92.5t-94 -220.5z" />
<glyph unicode="&#xbb;" horiz-adv-x="995" d="M31 158l432 426l-258 415h98l262 -426l-418 -415h-116zM373 158l407 426l-258 415h99l262 -426l-394 -415h-116z" />
<glyph unicode="&#xbc;" horiz-adv-x="1892" d="M117 545l14 73h197l127 660l12 45h-4q-10 -16 -55 -55l-105 -86l-45 59l229 193h78l-159 -816h190l-14 -73h-465zM397 0l967 1434h94l-964 -1434h-97zM1044 248l11 53l569 588h70l-111 -567h139l-14 -74h-139l-49 -248h-78l49 248h-447zM1178 322h327l58 301l32 133h-4 q-45 -56 -92 -103l-321 -327v-4z" />
<glyph unicode="&#xbd;" horiz-adv-x="1859" d="M117 545l14 73h197l127 660l12 45h-4q-10 -16 -55 -55l-105 -86l-45 59l229 193h78l-159 -816h190l-14 -73h-465zM397 0l967 1434h94l-964 -1434h-97zM1061 0q2 79 35.5 145t85 112t113 86.5t122.5 77t111.5 74.5t82 88t31.5 109q0 62 -42 103t-113 41q-52 0 -105.5 -26 t-80.5 -52l-27 -25l-43 58l13 13t35 28t55.5 35.5t71 28.5t83.5 13q115 0 174 -59.5t59 -153.5q0 -68 -27 -124t-72 -96.5t-100 -76t-113 -69.5t-109 -69.5t-91 -83.5t-55 -103h465l-14 -74h-545z" />
<glyph unicode="&#xbe;" horiz-adv-x="1929" d="M106 657l62 50q3 -4 9.5 -11.5t28 -26.5t46 -33t63.5 -26t80 -12q93 0 167.5 71.5t74.5 172.5q0 73 -55.5 116t-130.5 43h-66l-14 50l272 260l62 51v4q-37 -6 -78 -6h-336l14 74h522l-10 -54l-323 -307q33 -3 67.5 -15.5t71.5 -37t60.5 -71t23.5 -107.5 q0 -125 -97 -221.5t-227 -96.5q-52 0 -100.5 13.5t-80.5 33t-57.5 39.5t-36.5 34zM434 0l967 1434h94l-965 -1434h-96zM1081 248l11 53l569 588h70l-111 -567h139l-14 -74h-139l-50 -248h-77l49 248h-447zM1214 322h328l57 301l33 133h-4q-45 -56 -92 -103l-322 -327v-4z " />
<glyph unicode="&#xbf;" horiz-adv-x="880" d="M-37 -133q0 74 24.5 138t64.5 111.5t89 90.5t101 83.5t97 81.5t80 94.5t48 113.5l18 86h88l-18 -86q-15 -71 -51 -133t-81 -107.5t-96 -88t-98.5 -82.5t-86 -82.5t-62 -97.5t-23.5 -118q0 -95 67 -155t183 -60q68 0 138 21.5t105 42.5l36 22l35 -76q-6 -4 -16.5 -10.5 t-45 -23t-69.5 -29t-86.5 -23t-100.5 -10.5q-157 0 -248.5 82t-91.5 215zM510 899l27 125h120l-26 -125h-121z" />
<glyph unicode="&#xc0;" horiz-adv-x="1243" d="M-74 0l813 1434h92l261 -1434h-91l-88 496h-608l-280 -496h-99zM350 578h547l-102 581l-25 172h-4q-51 -111 -86 -172zM649 1763h107l92 -227h-82z" />
<glyph unicode="&#xc1;" horiz-adv-x="1243" d="M-74 0l813 1434h92l261 -1434h-91l-88 496h-608l-280 -496h-99zM350 578h547l-102 581l-25 172h-4q-51 -111 -86 -172zM756 1536l182 227h123l-207 -227h-98z" />
<glyph unicode="&#xc2;" horiz-adv-x="1243" d="M-74 0l813 1434h92l261 -1434h-91l-88 496h-608l-280 -496h-99zM350 578h547l-102 581l-25 172h-4q-51 -111 -86 -172zM584 1536l209 227h106l119 -227h-94l-82 164h-4l-148 -164h-106z" />
<glyph unicode="&#xc3;" horiz-adv-x="1243" d="M-74 0l813 1434h92l261 -1434h-91l-88 496h-608l-280 -496h-99zM350 578h547l-102 581l-25 172h-4q-51 -111 -86 -172zM524 1542q41 221 197 221q37 0 65.5 -15.5t46.5 -37.5t34 -44.5t36 -38t45 -15.5t45.5 15.5t32.5 40t18.5 46t10.5 43.5h82q-22 -112 -69 -166.5 t-130 -54.5q-44 0 -77.5 24t-50.5 52t-43 52t-56 24t-54.5 -28t-35 -58t-15.5 -60h-82z" />
<glyph unicode="&#xc4;" horiz-adv-x="1243" d="M-74 0l813 1434h92l261 -1434h-91l-88 496h-608l-280 -496h-99zM350 578h547l-102 581l-25 172h-4q-51 -111 -86 -172zM637 1614l29 149h94l-29 -149h-94zM918 1614l28 149h94l-28 -149h-94z" />
<glyph unicode="&#xc5;" horiz-adv-x="1243" d="M-74 0l813 1434h92l261 -1434h-91l-88 496h-608l-280 -496h-99zM350 578h547l-102 581l-25 172h-4q-51 -111 -86 -172zM690 1636q0 60 46 107t106 47q61 0 94 -32.5t33 -88.5q0 -60 -46 -106.5t-106 -46.5q-61 0 -94 31.5t-33 88.5zM762 1636q0 -22 14.5 -35.5 t40.5 -13.5q33 0 56.5 23.5t23.5 58.5q0 23 -15 37t-40 14q-33 0 -56.5 -24t-23.5 -60z" />
<glyph unicode="&#xc6;" horiz-adv-x="1716" d="M-76 0l867 1434h925l-16 -82h-696l-115 -588h571l-16 -82h-572l-116 -600h735l-16 -82h-824l133 682h-348l-411 -682h-101zM485 764h316l114 588h-73z" />
<glyph unicode="&#xc7;" horiz-adv-x="1511" d="M137 586q0 140 46.5 274t128.5 240.5t188.5 188t234 125.5t256.5 44q96 0 182.5 -18.5t140.5 -45t94 -53t58 -45.5l17 -18l-62 -64q-6 7 -17 17.5t-50.5 38t-85.5 48.5t-121 38.5t-156 17.5q-145 0 -284.5 -62t-244.5 -167t-169 -252t-64 -307q0 -230 141 -378.5 t371 -148.5q86 0 171.5 20t146 48.5t109 57.5t72.5 49l24 20l51 -68q-10 -9 -28 -23t-77 -50.5t-122 -64t-158 -50.5t-189 -23h-2l-37 -98q50 -8 83.5 -42t33.5 -89q0 -54 -33.5 -93t-79.5 -55t-96 -16q-27 0 -51.5 2.5t-35.5 5.5l-11 2l16 76q33 -10 80 -10q50 0 88.5 20.5 t38.5 67.5q0 30 -28.5 48t-81.5 18l-25 -2l68 170q-246 23 -388.5 189t-142.5 417z" />
<glyph unicode="&#xc8;" horiz-adv-x="1165" d="M102 0l281 1434h784l-18 -82h-694l-115 -588h571l-16 -82h-569l-119 -600h733l-14 -82h-824zM662 1763h106l92 -227h-82z" />
<glyph unicode="&#xc9;" horiz-adv-x="1165" d="M102 0l281 1434h784l-18 -82h-694l-115 -588h571l-16 -82h-569l-119 -600h733l-14 -82h-824zM768 1536l182 227h123l-207 -227h-98z" />
<glyph unicode="&#xca;" horiz-adv-x="1165" d="M102 0l281 1434h784l-18 -82h-694l-115 -588h571l-16 -82h-569l-119 -600h733l-14 -82h-824zM596 1536l209 227h106l119 -227h-94l-82 164h-4l-148 -164h-106z" />
<glyph unicode="&#xcb;" horiz-adv-x="1165" d="M102 0l281 1434h784l-18 -82h-694l-115 -588h571l-16 -82h-569l-119 -600h733l-14 -82h-824zM649 1614l29 149h94l-29 -149h-94zM930 1614l28 149h95l-29 -149h-94z" />
<glyph unicode="&#xcc;" horiz-adv-x="532" d="M102 0l281 1434h88l-281 -1434h-88zM291 1763h106l92 -227h-81z" />
<glyph unicode="&#xcd;" horiz-adv-x="532" d="M102 0l281 1434h88l-281 -1434h-88zM397 1536l183 227h122l-206 -227h-99z" />
<glyph unicode="&#xce;" horiz-adv-x="532" d="M102 0l281 1434h88l-281 -1434h-88zM225 1536l209 227h107l118 -227h-94l-82 164h-4l-147 -164h-107z" />
<glyph unicode="&#xcf;" horiz-adv-x="532" d="M102 0l281 1434h88l-281 -1434h-88zM279 1614l28 149h94l-28 -149h-94zM559 1614l29 149h94l-29 -149h-94z" />
<glyph unicode="&#xd0;" horiz-adv-x="1544" d="M129 0l133 682h-123l17 82h123l131 670h428q287 0 449.5 -145t162.5 -408q0 -180 -63 -341.5t-174 -280.5t-271 -189t-344 -70h-469zM231 82h349q165 0 309.5 61t247 166.5t162 253t59.5 314.5q0 228 -141 351.5t-390 123.5h-346l-116 -588h376l-16 -82h-377z" />
<glyph unicode="&#xd1;" horiz-adv-x="1529" d="M102 0l281 1434h72l598 -1125q16 -29 36.5 -74t32.5 -75l13 -31h4q8 108 22 180l219 1125h88l-280 -1434h-72l-598 1124q-16 29 -36.5 74.5t-33.5 75.5l-12 31h-4q-8 -109 -22 -181l-220 -1124h-88zM662 1542q41 221 196 221q37 0 65.5 -15.5t46.5 -37.5t34 -44.5t36 -38 t45 -15.5t45.5 15.5t32.5 40t18.5 46t10.5 43.5h82q-22 -112 -69 -166.5t-130 -54.5q-44 0 -77.5 24t-50.5 52t-43 52t-56 24t-54.5 -28t-35 -58t-15.5 -60h-81z" />
<glyph unicode="&#xd2;" horiz-adv-x="1695" d="M131 590q0 172 74.5 333.5t194.5 278t278 186.5t319 70q270 0 440.5 -168t170.5 -430q0 -175 -75 -339.5t-195.5 -283.5t-278.5 -190.5t-318 -71.5q-270 0 -440 172.5t-170 442.5zM223 590q0 -233 144.5 -382t373.5 -149q142 0 283 64.5t249 171t175.5 255.5t67.5 308 q0 226 -145 371t-374 145q-145 0 -286 -63t-248 -167.5t-173.5 -250.5t-66.5 -303zM866 1763h107l92 -227h-82z" />
<glyph unicode="&#xd3;" horiz-adv-x="1695" d="M131 590q0 172 74.5 333.5t194.5 278t278 186.5t319 70q270 0 440.5 -168t170.5 -430q0 -175 -75 -339.5t-195.5 -283.5t-278.5 -190.5t-318 -71.5q-270 0 -440 172.5t-170 442.5zM223 590q0 -233 144.5 -382t373.5 -149q142 0 283 64.5t249 171t175.5 255.5t67.5 308 q0 226 -145 371t-374 145q-145 0 -286 -63t-248 -167.5t-173.5 -250.5t-66.5 -303zM973 1536l182 227h123l-207 -227h-98z" />
<glyph unicode="&#xd4;" horiz-adv-x="1695" d="M131 590q0 172 74.5 333.5t194.5 278t278 186.5t319 70q270 0 440.5 -168t170.5 -430q0 -175 -75 -339.5t-195.5 -283.5t-278.5 -190.5t-318 -71.5q-270 0 -440 172.5t-170 442.5zM223 590q0 -233 144.5 -382t373.5 -149q142 0 283 64.5t249 171t175.5 255.5t67.5 308 q0 226 -145 371t-374 145q-145 0 -286 -63t-248 -167.5t-173.5 -250.5t-66.5 -303zM801 1536l209 227h106l119 -227h-94l-82 164h-4l-148 -164h-106z" />
<glyph unicode="&#xd5;" horiz-adv-x="1695" d="M131 590q0 172 74.5 333.5t194.5 278t278 186.5t319 70q270 0 440.5 -168t170.5 -430q0 -175 -75 -339.5t-195.5 -283.5t-278.5 -190.5t-318 -71.5q-270 0 -440 172.5t-170 442.5zM223 590q0 -233 144.5 -382t373.5 -149q142 0 283 64.5t249 171t175.5 255.5t67.5 308 q0 226 -145 371t-374 145q-145 0 -286 -63t-248 -167.5t-173.5 -250.5t-66.5 -303zM741 1542q41 221 197 221q37 0 65.5 -15.5t46.5 -37.5t34 -44.5t36 -38t45 -15.5t45.5 15.5t32.5 40t18.5 46t10.5 43.5h82q-22 -112 -69 -166.5t-130 -54.5q-44 0 -77.5 24t-50.5 52 t-43 52t-56 24t-54.5 -28t-35 -58t-15.5 -60h-82z" />
<glyph unicode="&#xd6;" horiz-adv-x="1695" d="M131 590q0 172 74.5 333.5t194.5 278t278 186.5t319 70q270 0 440.5 -168t170.5 -430q0 -175 -75 -339.5t-195.5 -283.5t-278.5 -190.5t-318 -71.5q-270 0 -440 172.5t-170 442.5zM223 590q0 -233 144.5 -382t373.5 -149q142 0 283 64.5t249 171t175.5 255.5t67.5 308 q0 226 -145 371t-374 145q-145 0 -286 -63t-248 -167.5t-173.5 -250.5t-66.5 -303zM854 1614l29 149h94l-29 -149h-94zM1135 1614l28 149h94l-28 -149h-94z" />
<glyph unicode="&#xd7;" horiz-adv-x="1413" d="M178 57l459 523l-459 522l58 57l456 -518l457 518l57 -57l-461 -522l461 -523l-57 -57l-457 518l-456 -518z" />
<glyph unicode="&#xd8;" horiz-adv-x="1703" d="M135 590q0 172 74.5 333.5t194.5 278t278 186.5t319 70q224 0 381 -119l131 144l66 -56l-131 -143q78 -81 121 -190t43 -234q0 -175 -75 -339.5t-195.5 -283.5t-278.5 -190.5t-318 -71.5q-228 0 -383 121l-131 -143l-67 53l135 148q-164 172 -164 436zM227 590 q0 -226 133 -371l963 1055q-137 100 -322 100q-145 0 -286 -63t-248 -167.5t-173.5 -250.5t-66.5 -303zM422 162q134 -103 323 -103q142 0 283 64.5t249 171t175.5 255.5t67.5 308q0 215 -134 359z" />
<glyph unicode="&#xd9;" horiz-adv-x="1472" d="M168 383q0 55 12 117l182 934h89l-183 -936q-10 -46 -10 -107q0 -157 98 -244.5t275 -87.5q203 0 347 119t185 324l183 932h88l-189 -953q-45 -235 -211.5 -370.5t-402.5 -135.5q-214 0 -338.5 109t-124.5 299zM758 1763h106l92 -227h-82z" />
<glyph unicode="&#xda;" horiz-adv-x="1472" d="M168 383q0 55 12 117l182 934h89l-183 -936q-10 -46 -10 -107q0 -157 98 -244.5t275 -87.5q203 0 347 119t185 324l183 932h88l-189 -953q-45 -235 -211.5 -370.5t-402.5 -135.5q-214 0 -338.5 109t-124.5 299zM864 1536l183 227h122l-206 -227h-99z" />
<glyph unicode="&#xdb;" horiz-adv-x="1472" d="M168 383q0 55 12 117l182 934h89l-183 -936q-10 -46 -10 -107q0 -157 98 -244.5t275 -87.5q203 0 347 119t185 324l183 932h88l-189 -953q-45 -235 -211.5 -370.5t-402.5 -135.5q-214 0 -338.5 109t-124.5 299zM692 1536l209 227h107l118 -227h-94l-82 164h-4l-147 -164 h-107z" />
<glyph unicode="&#xdc;" horiz-adv-x="1472" d="M168 383q0 55 12 117l182 934h89l-183 -936q-10 -46 -10 -107q0 -157 98 -244.5t275 -87.5q203 0 347 119t185 324l183 932h88l-189 -953q-45 -235 -211.5 -370.5t-402.5 -135.5q-214 0 -338.5 109t-124.5 299zM745 1614l29 149h94l-28 -149h-95zM1026 1614l29 149h94 l-29 -149h-94z" />
<glyph unicode="&#xdd;" horiz-adv-x="1126" d="M184 1434h95l227 -566l59 -161h4q64 87 119 159l449 568h108l-645 -813l-123 -621h-88l123 623zM682 1536l182 227h123l-207 -227h-98z" />
<glyph unicode="&#xde;" horiz-adv-x="1222" d="M102 0l281 1434h88l-53 -267h362q145 0 230 -49q74 -42 115.5 -116.5t41.5 -170.5q0 -161 -83.5 -284.5t-217.5 -179.5q-95 -39 -207 -39h-403l-66 -328h-88zM270 410h381q101 0 178 32q112 46 179 147t67 242q0 121 -78 187.5t-217 66.5h-379z" />
<glyph unicode="&#xdf;" horiz-adv-x="1155" d="M63 0l213 1104q22 110 92 192.5t159.5 122t183.5 39.5q144 0 222.5 -71.5t78.5 -178.5q0 -58 -25 -110t-62 -87.5t-81 -71.5t-81 -64.5t-62 -64.5t-25 -73q0 -27 19 -55t49 -53t66.5 -52t73 -57.5t66.5 -63.5t49 -75.5t19 -89.5q0 -82 -49.5 -153t-130.5 -111.5 t-172 -40.5q-89 0 -170 17.5t-118 35.5l-36 18l18 90q5 -3 14 -8.5t40 -18.5t64 -23t83.5 -18.5t102.5 -8.5q62 0 119.5 22t100 74.5t42.5 124.5q0 51 -35.5 98.5t-86 85.5l-101 76t-86 85.5t-35.5 98.5q0 48 25 92.5t62.5 76.5t81.5 68.5t81.5 68t62.5 74.5t25 89 q0 69 -53.5 119.5t-155.5 50.5q-75 0 -147.5 -33t-129 -101t-74.5 -157l-210 -1083h-87z" />
<glyph unicode="&#xe0;" horiz-adv-x="1056" d="M29 231q0 80 31 144t86.5 106t122.5 71.5t149 44.5t155 21.5t152 6.5h80q14 79 14 131q0 99 -52.5 154t-176.5 55q-50 0 -100.5 -10t-86.5 -24.5t-65 -29.5t-44 -25l-15 -10l-37 78l16.5 11t45.5 25.5t72.5 32t96 25t117.5 11.5q156 0 237.5 -70.5t81.5 -210.5 q0 -52 -12 -117l-127 -651h-86l27 133q4 24 10 47.5t10 35.5l4 11h-4q2 0 -13.5 -26t-48.5 -63t-78 -74t-113 -63t-142 -26q-131 0 -219 69t-88 187zM119 240q0 -78 57.5 -131.5t167.5 -53.5q78 0 152.5 40.5t130.5 105t96 142t57 155.5l11 47h-66q-606 0 -606 -305z M479 1434h107l92 -228h-82z" />
<glyph unicode="&#xe1;" horiz-adv-x="1056" d="M29 231q0 80 31 144t86.5 106t122.5 71.5t149 44.5t155 21.5t152 6.5h80q14 79 14 131q0 99 -52.5 154t-176.5 55q-50 0 -100.5 -10t-86.5 -24.5t-65 -29.5t-44 -25l-15 -10l-37 78l16.5 11t45.5 25.5t72.5 32t96 25t117.5 11.5q156 0 237.5 -70.5t81.5 -210.5 q0 -52 -12 -117l-127 -651h-86l27 133q4 24 10 47.5t10 35.5l4 11h-4q2 0 -13.5 -26t-48.5 -63t-78 -74t-113 -63t-142 -26q-131 0 -219 69t-88 187zM119 240q0 -78 57.5 -131.5t167.5 -53.5q78 0 152.5 40.5t130.5 105t96 142t57 155.5l11 47h-66q-606 0 -606 -305z M586 1206l182 228h123l-207 -228h-98z" />
<glyph unicode="&#xe2;" horiz-adv-x="1056" d="M29 231q0 80 31 144t86.5 106t122.5 71.5t149 44.5t155 21.5t152 6.5h80q14 79 14 131q0 99 -52.5 154t-176.5 55q-50 0 -100.5 -10t-86.5 -24.5t-65 -29.5t-44 -25l-15 -10l-37 78l16.5 11t45.5 25.5t72.5 32t96 25t117.5 11.5q156 0 237.5 -70.5t81.5 -210.5 q0 -52 -12 -117l-127 -651h-86l27 133q4 24 10 47.5t10 35.5l4 11h-4q2 0 -13.5 -26t-48.5 -63t-78 -74t-113 -63t-142 -26q-131 0 -219 69t-88 187zM119 240q0 -78 57.5 -131.5t167.5 -53.5q78 0 152.5 40.5t130.5 105t96 142t57 155.5l11 47h-66q-606 0 -606 -305z M414 1206l209 228h106l119 -228h-94l-82 164h-4l-148 -164h-106z" />
<glyph unicode="&#xe3;" horiz-adv-x="1056" d="M29 231q0 80 31 144t86.5 106t122.5 71.5t149 44.5t155 21.5t152 6.5h80q14 79 14 131q0 99 -52.5 154t-176.5 55q-50 0 -100.5 -10t-86.5 -24.5t-65 -29.5t-44 -25l-15 -10l-37 78l16.5 11t45.5 25.5t72.5 32t96 25t117.5 11.5q156 0 237.5 -70.5t81.5 -210.5 q0 -52 -12 -117l-127 -651h-86l27 133q4 24 10 47.5t10 35.5l4 11h-4q2 0 -13.5 -26t-48.5 -63t-78 -74t-113 -63t-142 -26q-131 0 -219 69t-88 187zM119 240q0 -78 57.5 -131.5t167.5 -53.5q78 0 152.5 40.5t130.5 105t96 142t57 155.5l11 47h-66q-606 0 -606 -305z M354 1212q41 222 197 222q37 0 65.5 -15.5t46.5 -38t34 -45t36 -38t45 -15.5t45.5 15.5t32.5 40t18.5 46t10.5 43.5h82q-22 -112 -69 -166.5t-130 -54.5q-44 0 -77.5 24t-50.5 52t-43 52t-56 24t-54.5 -28t-35 -58t-15.5 -60h-82z" />
<glyph unicode="&#xe4;" horiz-adv-x="1056" d="M29 231q0 80 31 144t86.5 106t122.5 71.5t149 44.5t155 21.5t152 6.5h80q14 79 14 131q0 99 -52.5 154t-176.5 55q-50 0 -100.5 -10t-86.5 -24.5t-65 -29.5t-44 -25l-15 -10l-37 78l16.5 11t45.5 25.5t72.5 32t96 25t117.5 11.5q156 0 237.5 -70.5t81.5 -210.5 q0 -52 -12 -117l-127 -651h-86l27 133q4 24 10 47.5t10 35.5l4 11h-4q2 0 -13.5 -26t-48.5 -63t-78 -74t-113 -63t-142 -26q-131 0 -219 69t-88 187zM119 240q0 -78 57.5 -131.5t167.5 -53.5q78 0 152.5 40.5t130.5 105t96 142t57 155.5l11 47h-66q-606 0 -606 -305z M467 1284l29 150h94l-29 -150h-94zM748 1284l28 150h94l-28 -150h-94z" />
<glyph unicode="&#xe5;" horiz-adv-x="1056" d="M29 231q0 80 31 144t86.5 106t122.5 71.5t149 44.5t155 21.5t152 6.5h80q14 79 14 131q0 99 -52.5 154t-176.5 55q-50 0 -100.5 -10t-86.5 -24.5t-65 -29.5t-44 -25l-15 -10l-37 78l16.5 11t45.5 25.5t72.5 32t96 25t117.5 11.5q156 0 237.5 -70.5t81.5 -210.5 q0 -52 -12 -117l-127 -651h-86l27 133q4 24 10 47.5t10 35.5l4 11h-4q2 0 -13.5 -26t-48.5 -63t-78 -74t-113 -63t-142 -26q-131 0 -219 69t-88 187zM119 240q0 -78 57.5 -131.5t167.5 -53.5q78 0 152.5 40.5t130.5 105t96 142t57 155.5l11 47h-66q-606 0 -606 -305z M520 1307q0 60 46 106.5t106 46.5q61 0 94 -32.5t33 -88.5q0 -60 -46 -106.5t-106 -46.5q-61 0 -94 32t-33 89zM592 1307q0 -22 14.5 -36t40.5 -14q33 0 56.5 23.5t23.5 58.5q0 23 -15 37.5t-40 14.5q-33 0 -56.5 -24t-23.5 -60z" />
<glyph unicode="&#xe6;" horiz-adv-x="1800" d="M29 231q0 70 22.5 127t60 96t93 68.5t113.5 46.5t130.5 27.5t135 14t135.5 3.5h82l8 45q27 153 -24.5 229.5t-204.5 76.5q-45 0 -93 -10t-83.5 -24.5t-64.5 -29.5t-45 -25l-15 -10l-37 78l16.5 11t46 25.5t72.5 32t92.5 25t110.5 11.5q161 0 238 -60t83 -162h4 q81 110 194.5 166t241.5 56q176 0 267.5 -98.5t91.5 -266.5q0 -29 -6 -66.5t-12 -59.5l-7 -23h-803q-14 -66 -14 -132q0 -164 92.5 -254t247.5 -90q55 0 111 13.5t96 32.5t72 37.5t49 31.5l16 14l33 -77q-7 -6 -19 -15t-51.5 -32.5t-81 -41.5t-102 -32.5t-119.5 -14.5 q-168 0 -281 83t-141 223h-4q-9 -22 -27.5 -53t-58.5 -77.5t-88 -84t-120.5 -64.5t-151.5 -27q-130 0 -215.5 67.5t-85.5 188.5zM121 238q0 -79 57.5 -131t165.5 -52q80 0 154.5 39t129 103t93 139.5t55.5 152.5l10 46h-141q-524 0 -524 -297zM895 614h707q6 43 6 82 q0 137 -75.5 205t-191.5 68q-146 0 -266 -91.5t-180 -263.5z" />
<glyph unicode="&#xe7;" horiz-adv-x="1134" d="M82 403q0 141 55.5 264.5t144.5 205.5t200.5 129t224.5 47q71 0 134 -15t102.5 -36.5t69 -43t41.5 -36.5l13 -15l-61 -63q-4 5 -12 13.5t-35.5 30t-58.5 38t-82.5 30t-106.5 13.5q-97 0 -193 -40.5t-173 -111.5t-125 -176.5t-48 -224.5q0 -160 103.5 -256.5t261.5 -96.5 q63 0 124.5 15t104 37t75.5 44t49 37l17 15l33 -78q-6 -6 -18 -16.5t-52.5 -37t-84 -47t-110 -37t-134.5 -16.5h-13l-36 -98q50 -8 83 -42t33 -89q0 -54 -33.5 -93t-79.5 -55t-96 -16q-27 0 -51.5 2.5t-35.5 5.5l-11 2l16 76q33 -10 80 -10q50 0 88.5 20.5t38.5 67.5 q0 30 -28.5 48t-81.5 18l-25 -2l70 172q-170 24 -273.5 136t-103.5 285z" />
<glyph unicode="&#xe8;" horiz-adv-x="1134" d="M82 403q0 122 45 239t122.5 207t190 145t238.5 55q177 0 266.5 -99t89.5 -264q0 -34 -6.5 -74t-13.5 -63l-6 -23h-822q-12 -58 -12 -112q0 -155 94 -255t267 -100q55 0 110 13.5t95 32.5t72 37.5t48 31.5l17 14l32 -77q-7 -6 -19 -15t-51 -32.5t-80.5 -41.5t-102.5 -32.5 t-121 -14.5q-200 0 -326.5 116.5t-126.5 311.5zM207 606h727q8 39 8 86q0 137 -73 207t-191 70q-96 0 -186.5 -40t-167 -123.5t-117.5 -199.5zM567 1434h107l92 -228h-82z" />
<glyph unicode="&#xe9;" horiz-adv-x="1134" d="M82 403q0 122 45 239t122.5 207t190 145t238.5 55q177 0 266.5 -99t89.5 -264q0 -34 -6.5 -74t-13.5 -63l-6 -23h-822q-12 -58 -12 -112q0 -155 94 -255t267 -100q55 0 110 13.5t95 32.5t72 37.5t48 31.5l17 14l32 -77q-7 -6 -19 -15t-51 -32.5t-80.5 -41.5t-102.5 -32.5 t-121 -14.5q-200 0 -326.5 116.5t-126.5 311.5zM207 606h727q8 39 8 86q0 137 -73 207t-191 70q-96 0 -186.5 -40t-167 -123.5t-117.5 -199.5zM674 1206l182 228h123l-207 -228h-98z" />
<glyph unicode="&#xea;" horiz-adv-x="1134" d="M82 403q0 122 45 239t122.5 207t190 145t238.5 55q177 0 266.5 -99t89.5 -264q0 -34 -6.5 -74t-13.5 -63l-6 -23h-822q-12 -58 -12 -112q0 -155 94 -255t267 -100q55 0 110 13.5t95 32.5t72 37.5t48 31.5l17 14l32 -77q-7 -6 -19 -15t-51 -32.5t-80.5 -41.5t-102.5 -32.5 t-121 -14.5q-200 0 -326.5 116.5t-126.5 311.5zM207 606h727q8 39 8 86q0 137 -73 207t-191 70q-96 0 -186.5 -40t-167 -123.5t-117.5 -199.5zM502 1206l209 228h106l119 -228h-94l-82 164h-4l-148 -164h-106z" />
<glyph unicode="&#xeb;" horiz-adv-x="1134" d="M82 403q0 122 45 239t122.5 207t190 145t238.5 55q177 0 266.5 -99t89.5 -264q0 -34 -6.5 -74t-13.5 -63l-6 -23h-822q-12 -58 -12 -112q0 -155 94 -255t267 -100q55 0 110 13.5t95 32.5t72 37.5t48 31.5l17 14l32 -77q-7 -6 -19 -15t-51 -32.5t-80.5 -41.5t-102.5 -32.5 t-121 -14.5q-200 0 -326.5 116.5t-126.5 311.5zM207 606h727q8 39 8 86q0 137 -73 207t-191 70q-96 0 -186.5 -40t-167 -123.5t-117.5 -199.5zM555 1284l29 150h94l-29 -150h-94zM836 1284l28 150h94l-28 -150h-94z" />
<glyph unicode="&#xec;" horiz-adv-x="448" d="M63 0l199 1024h86l-198 -1024h-87zM184 1434h107l92 -228h-82z" />
<glyph unicode="&#xed;" horiz-adv-x="448" d="M63 0l199 1024h86l-198 -1024h-87zM291 1206l182 228h123l-207 -228h-98z" />
<glyph unicode="&#xee;" horiz-adv-x="448" d="M63 0l199 1024h86l-198 -1024h-87zM119 1206l209 228h106l119 -228h-94l-82 164h-4l-148 -164h-106z" />
<glyph unicode="&#xef;" horiz-adv-x="448" d="M63 0l199 1024h86l-198 -1024h-87zM172 1284l29 150h94l-29 -150h-94zM453 1284l28 150h94l-28 -150h-94z" />
<glyph unicode="&#xf0;" horiz-adv-x="1210" d="M78 375q0 104 39.5 207t111 187t184 136.5t246.5 52.5q67 0 124.5 -14.5t92.5 -35t60.5 -41.5t35.5 -35l11 -15h4q-35 240 -209 381l-383 -164l-20 76l330 141q-122 72 -293 121l37 72q210 -57 346 -154l284 121l23 -76l-238 -100q217 -194 217 -510q0 -74 -15.5 -155.5 t-46 -166.5t-81.5 -161t-116 -136t-155 -95.5t-194 -35.5q-97 0 -173.5 32.5t-124 88t-72.5 127t-25 152.5zM168 379q0 -137 80 -229.5t225 -92.5q87 0 167.5 35.5t139.5 93.5t103.5 130.5t67 148t22.5 143.5q0 120 -85 194.5t-231 74.5q-97 0 -187.5 -40t-156.5 -107 t-105.5 -159t-39.5 -192z" />
<glyph unicode="&#xf1;" horiz-adv-x="1202" d="M61 0l199 1024h86l-31 -170q-4 -21 -11 -44.5t-12 -36.5l-5 -13h4q17 34 46 71t74.5 76.5t98 70.5t121.5 51t141 20q140 0 212.5 -66.5t72.5 -191.5q0 -55 -17 -142l-125 -649h-86l119 618q19 101 19 156q0 95 -53 143t-144 48q-125 0 -238.5 -67.5t-190 -178 t-101.5 -240.5l-93 -479h-86zM463 1212q41 222 196 222q37 0 65.5 -15.5t46.5 -38t34.5 -45t36.5 -38t45 -15.5t45.5 15.5t32 40.5t18 46t10.5 43h82q-22 -112 -68.5 -166.5t-129.5 -54.5q-36 0 -64.5 15.5t-46.5 38t-34 45t-37 38t-46 15.5q-43 0 -69 -47.5t-35 -98.5h-82z " />
<glyph unicode="&#xf2;" horiz-adv-x="1275" d="M80 420q0 127 53.5 244.5t140 201t201 133.5t232.5 50q201 0 326.5 -123.5t125.5 -315.5q0 -128 -54 -247t-141 -203t-201 -134.5t-231 -50.5q-201 0 -326.5 125t-125.5 320zM170 422q0 -159 101 -261t261 -102q99 0 196 43.5t172.5 116.5t122 176t46.5 213 q0 156 -101 256.5t-261 100.5q-136 0 -259.5 -72.5t-200.5 -199t-77 -271.5zM596 1434h106l93 -228h-82z" />
<glyph unicode="&#xf3;" horiz-adv-x="1275" d="M80 420q0 127 53.5 244.5t140 201t201 133.5t232.5 50q201 0 326.5 -123.5t125.5 -315.5q0 -128 -54 -247t-141 -203t-201 -134.5t-231 -50.5q-201 0 -326.5 125t-125.5 320zM170 422q0 -159 101 -261t261 -102q99 0 196 43.5t172.5 116.5t122 176t46.5 213 q0 156 -101 256.5t-261 100.5q-136 0 -259.5 -72.5t-200.5 -199t-77 -271.5zM702 1206l183 228h123l-207 -228h-99z" />
<glyph unicode="&#xf4;" horiz-adv-x="1275" d="M80 420q0 127 53.5 244.5t140 201t201 133.5t232.5 50q201 0 326.5 -123.5t125.5 -315.5q0 -128 -54 -247t-141 -203t-201 -134.5t-231 -50.5q-201 0 -326.5 125t-125.5 320zM170 422q0 -159 101 -261t261 -102q99 0 196 43.5t172.5 116.5t122 176t46.5 213 q0 156 -101 256.5t-261 100.5q-136 0 -259.5 -72.5t-200.5 -199t-77 -271.5zM530 1206l209 228h107l119 -228h-95l-82 164h-4l-147 -164h-107z" />
<glyph unicode="&#xf5;" horiz-adv-x="1275" d="M80 420q0 127 53.5 244.5t140 201t201 133.5t232.5 50q201 0 326.5 -123.5t125.5 -315.5q0 -128 -54 -247t-141 -203t-201 -134.5t-231 -50.5q-201 0 -326.5 125t-125.5 320zM170 422q0 -159 101 -261t261 -102q99 0 196 43.5t172.5 116.5t122 176t46.5 213 q0 156 -101 256.5t-261 100.5q-136 0 -259.5 -72.5t-200.5 -199t-77 -271.5zM471 1212q41 222 197 222q37 0 65.5 -15.5t46.5 -38t34 -45t36 -38t45 -15.5t45.5 15.5t32 40.5t18 46t10.5 43h82q-22 -112 -68.5 -166.5t-129.5 -54.5q-36 0 -64.5 15.5t-46.5 38t-34 45t-37 38 t-46 15.5q-43 0 -69 -47.5t-35 -98.5h-82z" />
<glyph unicode="&#xf6;" horiz-adv-x="1275" d="M80 420q0 127 53.5 244.5t140 201t201 133.5t232.5 50q201 0 326.5 -123.5t125.5 -315.5q0 -128 -54 -247t-141 -203t-201 -134.5t-231 -50.5q-201 0 -326.5 125t-125.5 320zM170 422q0 -159 101 -261t261 -102q99 0 196 43.5t172.5 116.5t122 176t46.5 213 q0 156 -101 256.5t-261 100.5q-136 0 -259.5 -72.5t-200.5 -199t-77 -271.5zM584 1284l28 150h95l-29 -150h-94zM864 1284l29 150h94l-29 -150h-94z" />
<glyph unicode="&#xf7;" horiz-adv-x="1359" d="M184 539v82h975v-82h-975zM612 156v120h117v-120h-117zM612 883v121h117v-121h-117z" />
<glyph unicode="&#xf8;" horiz-adv-x="1277" d="M80 420q0 127 53.5 244.5t140 201t201 133.5t232.5 50q160 0 280 -84l103 112l65 -57l-104 -115q108 -121 108 -295q0 -128 -54 -247t-141 -203t-201 -134.5t-231 -50.5q-151 0 -264 74l-100 -108l-66 57l99 106q-121 124 -121 316zM170 422q0 -153 90 -252l666 729 q-95 66 -219 66q-136 0 -259.5 -72.5t-200.5 -199t-77 -271.5zM328 115q91 -56 204 -56q99 0 196 43.5t172.5 116.5t122 176t46.5 213q0 136 -80 232z" />
<glyph unicode="&#xf9;" d="M106 233q0 55 17 142l125 649h86l-119 -614q-18 -89 -18 -160q0 -91 45 -141t157 -50q93 0 181.5 43t155 112.5t113.5 157t64 177.5l93 475h86l-199 -1024h-86l33 170l26 94h-4q-23 -44 -63 -90t-99 -93t-142 -76.5t-173 -29.5q-122 0 -200.5 62.5t-78.5 195.5zM547 1434 h106l92 -228h-81z" />
<glyph unicode="&#xfa;" d="M106 233q0 55 17 142l125 649h86l-119 -614q-18 -89 -18 -160q0 -91 45 -141t157 -50q93 0 181.5 43t155 112.5t113.5 157t64 177.5l93 475h86l-199 -1024h-86l33 170l26 94h-4q-23 -44 -63 -90t-99 -93t-142 -76.5t-173 -29.5q-122 0 -200.5 62.5t-78.5 195.5zM653 1206 l183 228h122l-206 -228h-99z" />
<glyph unicode="&#xfb;" d="M106 233q0 55 17 142l125 649h86l-119 -614q-18 -89 -18 -160q0 -91 45 -141t157 -50q93 0 181.5 43t155 112.5t113.5 157t64 177.5l93 475h86l-199 -1024h-86l33 170l26 94h-4q-23 -44 -63 -90t-99 -93t-142 -76.5t-173 -29.5q-122 0 -200.5 62.5t-78.5 195.5zM481 1206 l209 228h107l118 -228h-94l-82 164h-4l-147 -164h-107z" />
<glyph unicode="&#xfc;" d="M106 233q0 55 17 142l125 649h86l-119 -614q-18 -89 -18 -160q0 -91 45 -141t157 -50q93 0 181.5 43t155 112.5t113.5 157t64 177.5l93 475h86l-199 -1024h-86l33 170l26 94h-4q-23 -44 -63 -90t-99 -93t-142 -76.5t-173 -29.5q-122 0 -200.5 62.5t-78.5 195.5zM535 1284 l28 150h94l-28 -150h-94zM815 1284l29 150h94l-29 -150h-94z" />
<glyph unicode="&#xfd;" horiz-adv-x="1003" d="M-182 -373l49 68q5 -5 14 -12t40 -19t65 -12q72 0 128.5 49t108.5 133l109 174l-230 1016h91l178 -831l18 -97h2q26 48 55 97l500 831h98l-776 -1270q-114 -184 -282 -184q-47 0 -89 14t-61 28zM559 1206l182 228h123l-207 -228h-98z" />
<glyph unicode="&#xfe;" horiz-adv-x="1193" d="M-16 -410l356 1844h86l-100 -523q-4 -21 -10 -44t-10 -35l-5 -13h4q55 97 157.5 163.5t235.5 66.5q179 0 277 -108t98 -296q0 -144 -46.5 -270.5t-123.5 -213t-177 -136.5t-206 -50q-124 0 -214 59.5t-120 172.5h-4q-2 -48 -12 -101l-100 -516h-86zM236 383 q0 -140 72 -232t208 -92q83 0 165 40.5t149.5 113t109 184.5t41.5 244q0 151 -75.5 237.5t-207.5 86.5q-83 0 -158 -35t-129 -93.5t-94.5 -133.5t-60.5 -157.5t-20 -162.5z" />
<glyph unicode="&#xff;" horiz-adv-x="1003" d="M-182 -373l49 68q5 -5 14 -12t40 -19t65 -12q72 0 128.5 49t108.5 133l109 174l-230 1016h91l178 -831l18 -97h2q26 48 55 97l500 831h98l-776 -1270q-114 -184 -282 -184q-47 0 -89 14t-61 28zM440 1284l29 150h94l-28 -150h-95zM721 1284l29 150h94l-29 -150h-94z" />
<glyph unicode="&#x152;" horiz-adv-x="1933" d="M133 578q0 174 70 336t186 280t274 189t328 71q38 0 132 -10t124 -10h690l-16 -82h-696l-115 -588h571l-16 -82h-571l-117 -600h735l-16 -82h-707q-27 0 -115.5 -10t-125.5 -10q-140 0 -256 44.5t-194.5 124t-121.5 189.5t-43 240zM225 567q0 -225 139 -364.5t379 -139.5 q34 0 70.5 4.5t56.5 8.5l19 4l248 1274q-66 16 -142 16q-156 0 -298.5 -64.5t-246 -172.5t-164.5 -256.5t-61 -309.5z" />
<glyph unicode="&#x153;" horiz-adv-x="2103" d="M80 420q0 127 53.5 244.5t140 201t201 133.5t232.5 50q162 0 276.5 -84t155.5 -224h4q80 139 212 223.5t292 84.5q177 0 266.5 -99t89.5 -264q0 -34 -6.5 -74t-13.5 -63l-7 -23h-821q-12 -67 -12 -112q0 -166 100 -260.5t260 -94.5q55 0 110 13.5t95 32.5t72 37.5 t48 31.5l17 14l33 -77q-7 -6 -19 -15t-51.5 -32.5t-81 -41.5t-102.5 -32.5t-121 -14.5q-167 0 -284 82.5t-154 227.5h-4q-87 -141 -230 -225.5t-299 -84.5q-201 0 -326.5 125t-125.5 320zM170 422q0 -159 101 -261t261 -102q99 0 196 43.5t172.5 116.5t122 176t46.5 213 q0 156 -101 256.5t-261 100.5q-136 0 -259.5 -72.5t-200.5 -199t-77 -271.5zM1176 606h727q8 39 8 86q0 137 -73 207t-191 70q-96 0 -186.5 -40t-167 -123.5t-117.5 -199.5z" />
<glyph unicode="&#x178;" horiz-adv-x="1126" d="M184 1434h95l227 -566l59 -161h4q64 87 119 159l449 568h108l-645 -813l-123 -621h-88l123 623zM563 1614l29 149h94l-29 -149h-94zM844 1614l28 149h95l-29 -149h-94z" />
<glyph unicode="&#x2c6;" horiz-adv-x="1040" d="M162 1536l209 227h106l119 -227h-94l-82 164h-4l-148 -164h-106z" />
<glyph unicode="&#x2dc;" horiz-adv-x="1042" d="M102 1542q41 221 197 221q37 0 65.5 -15.5t46.5 -37.5t34 -44.5t36 -38t45 -15.5t45.5 15.5t32.5 40t18.5 46t10.5 43.5h82q-22 -112 -69 -166.5t-130 -54.5q-44 0 -77.5 24t-50.5 52t-43 52t-56 24t-54.5 -28t-35 -58t-15.5 -60h-82z" />
<glyph unicode="&#x2000;" horiz-adv-x="895" />
<glyph unicode="&#x2001;" horiz-adv-x="1790" />
<glyph unicode="&#x2002;" horiz-adv-x="895" />
<glyph unicode="&#x2003;" horiz-adv-x="1790" />
<glyph unicode="&#x2004;" horiz-adv-x="596" />
<glyph unicode="&#x2005;" horiz-adv-x="447" />
<glyph unicode="&#x2006;" horiz-adv-x="298" />
<glyph unicode="&#x2007;" horiz-adv-x="298" />
<glyph unicode="&#x2008;" horiz-adv-x="223" />
<glyph unicode="&#x2009;" horiz-adv-x="358" />
<glyph unicode="&#x200a;" horiz-adv-x="99" />
<glyph unicode="&#x2010;" horiz-adv-x="722" d="M66 539l14 82h565l-14 -82h-565z" />
<glyph unicode="&#x2011;" horiz-adv-x="722" d="M66 539l14 82h565l-14 -82h-565z" />
<glyph unicode="&#x2012;" horiz-adv-x="722" d="M66 539l14 82h565l-14 -82h-565z" />
<glyph unicode="&#x2013;" horiz-adv-x="1132" d="M66 539l14 82h975l-15 -82h-974z" />
<glyph unicode="&#x2014;" horiz-adv-x="1542" d="M66 539l14 82h1384l-14 -82h-1384z" />
<glyph unicode="&#x2018;" horiz-adv-x="419" d="M227 1141l158 309h84l-131 -309h-111z" />
<glyph unicode="&#x2019;" horiz-adv-x="411" d="M231 1141l131 309h111l-158 -309h-84z" />
<glyph unicode="&#x201a;" horiz-adv-x="491" d="M-20 -184l131 309h110l-158 -309h-83z" />
<glyph unicode="&#x201c;" horiz-adv-x="624" d="M227 1141l158 309h84l-131 -309h-111zM432 1141l158 309h84l-131 -309h-111z" />
<glyph unicode="&#x201d;" horiz-adv-x="616" d="M231 1141l131 309h111l-158 -309h-84zM436 1141l131 309h111l-158 -309h-84z" />
<glyph unicode="&#x201e;" horiz-adv-x="696" d="M-20 -184l131 309h110l-158 -309h-83zM184 -184l131 309h111l-158 -309h-84z" />
<glyph unicode="&#x2022;" horiz-adv-x="804" d="M127 596q0 112 78.5 191t191.5 79t192 -79t79 -191t-79 -191t-192 -79t-191.5 79t-78.5 191z" />
<glyph unicode="&#x2026;" horiz-adv-x="1361" d="M70 0l26 129h125l-26 -129h-125zM506 0l26 129h125l-26 -129h-125zM942 0l27 129h125l-27 -129h-125z" />
<glyph unicode="&#x202f;" horiz-adv-x="358" />
<glyph unicode="&#x2039;" horiz-adv-x="667" d="M102 584l394 415h116l-407 -426l258 -415h-98z" />
<glyph unicode="&#x203a;" horiz-adv-x="665" d="M43 158l408 426l-258 415h98l262 -426l-393 -415h-117z" />
<glyph unicode="&#x205f;" horiz-adv-x="447" />
<glyph unicode="&#x20ac;" horiz-adv-x="1202" d="M80 559l14 82h113q6 86 35 182h-111l14 82h125q102 245 318 399t463 154q50 0 98 -6t71 -12l23 -6l-37 -82q-69 20 -157 20q-213 0 -400 -129.5t-282 -337.5h671l-30 -82h-672q-30 -89 -39 -182h641l-29 -82h-614q2 -104 34.5 -193t93 -157.5t155.5 -108t215 -39.5 q46 0 92.5 6.5t70.5 13.5l23 7l8 -86q-85 -27 -196 -27q-261 0 -423.5 162.5t-164.5 421.5h-123z" />
<glyph unicode="&#x2122;" horiz-adv-x="2013" d="M188 1356v78h738v-78h-330v-815h-80v815h-328zM1010 541l71 893h72l258 -553q8 -18 15.5 -38.5t10.5 -32.5l3 -11h4q11 41 29 82l258 553h71l72 -893h-78l-57 671l2 58h-4l-260 -561h-70l-260 561h-4l2 -58l-58 -671h-77z" />
<glyph unicode="&#xe000;" horiz-adv-x="1024" d="M0 0v1024h1024v-1024h-1024z" />
</font>
</defs>
</svg>
