<?xml version="1.0" standalone="no"?>
<!DOCTYPE svg PUBLIC "-//W3C//DTD SVG 1.1//EN" "http://www.w3.org/Graphics/SVG/1.1/DTD/svg11.dtd" >
<svg xmlns="http://www.w3.org/2000/svg">
<metadata></metadata>
<defs>
<font id="adobe_garamond_pro_bolditalic" horiz-adv-x="1064" >
<font-face units-per-em="2048" ascent="1485" descent="-563" />
<missing-glyph horiz-adv-x="491" />
<glyph unicode="&#xfb03;" horiz-adv-x="1695" d="M-336 -393q0 49 36 85t79 36t57 -43q36 -65 70 -100.5t53 -35.5q17 0 33.5 37t44.5 138q191 705 266 989h-199q-8 30 1.5 63.5t23.5 42.5h205q55 183 131 314q165 282 455 282q87 0 138.5 -36.5t69.5 -86.5q159 172 390 172q130 0 210 -61.5t80 -140.5q-1 -71 -47 -108.5 t-102 -37.5q-51 0 -73.5 23.5t-22.5 54.5q-3 180 -95 180q-42 0 -80 -35.5t-79 -107.5q-69 -118 -160 -412h143q84 0 197 14.5t129 14.5q31 0 47 -24.5t16 -53.5q0 -37 -26 -100l-199 -504q-14 -31 8 -31q21 0 86.5 45t106.5 84q19 0 31 -14.5t8 -34.5q-68 -91 -190 -167.5 t-236 -76.5q-36 0 -67.5 30t-31.5 52q0 24 25 88l188 484q16 36 12.5 55.5t-16.5 26t-41 6.5h-221q-31 -97 -99.5 -333t-109.5 -364q-84 -252 -145 -344q-51 -76 -138 -129t-182 -53q-72 0 -130 41t-58 111q0 44 30 77t72 33q39 0 58 -39q29 -56 61 -89.5t51 -33.5 q17 0 33.5 37t44.5 137q127 470 258 949h-303q-34 -109 -105.5 -358t-115.5 -380q-84 -252 -145 -344q-51 -76 -139 -129t-185 -53q-50 0 -95.5 16t-78.5 53.5t-33 88.5zM588 819h305q2 7 12 34.5t12.5 35.5t11.5 33t13 35.5t13 33t14.5 35t14 32t16 34t16.5 32t18 33.5 q-10 74 -45 121t-94 47q-56 0 -100 -36.5t-86 -121.5q-59 -115 -121 -348z" />
<glyph unicode="&#xfb04;" horiz-adv-x="1697" d="M-336 -393q0 49 36 85t79 36t57 -43q36 -65 70 -100.5t53 -35.5q17 0 33.5 37t44.5 138q191 705 266 989h-199q-8 30 1.5 63.5t23.5 42.5h205q55 183 131 314q165 282 444 282q93 0 149.5 -37t71.5 -82q63 70 161.5 119t213.5 49q147 0 217 -61q109 50 172 61 q21 -3 21 -20q-10 -29 -28.5 -78t-35 -94.5t-32.5 -93.5l-338 -975q-8 -23 -12 -39t-5 -29t3.5 -19.5t15.5 -6.5q30 0 95.5 60.5t117.5 121.5q18 2 30 -11.5t9 -33.5q-141 -275 -404 -275q-71 0 -102 26t-31 62q0 40 29 123l184 531h-293q-31 -97 -99.5 -333t-109.5 -364 q-84 -252 -145 -344q-51 -76 -138 -129t-182 -53q-72 0 -130 41t-58 111q0 44 30 77t72 33q39 0 58 -39q29 -56 61 -89.5t51 -33.5q17 0 33.5 37t44.5 137q127 470 258 949h-303q-34 -109 -105.5 -358t-115.5 -380q-84 -252 -145 -344q-51 -76 -139 -129t-185 -53 q-50 0 -95.5 16t-78.5 53.5t-33 88.5zM588 819h305q70 217 139 338q-11 72 -48.5 120t-94.5 48q-51 0 -94 -36.5t-86 -121.5q-59 -115 -121 -348zM1147 819h301l131 379q26 76 2 126t-84 50q-46 0 -100.5 -40t-96.5 -115q-40 -71 -84 -191t-69 -209z" />
<glyph horiz-adv-x="2048" />
<glyph horiz-adv-x="2048" />
<glyph unicode="&#xd;" horiz-adv-x="2048" />
<glyph unicode=" "  horiz-adv-x="491" />
<glyph unicode="&#x09;" horiz-adv-x="491" />
<glyph unicode="&#xa0;" horiz-adv-x="491" />
<glyph unicode="!" horiz-adv-x="505" d="M45 115q0 75 50.5 133.5t127.5 58.5q62 0 99.5 -40.5t37.5 -110.5q0 -77 -50 -131t-124 -54q-61 0 -101 39t-40 105zM236 420l73 575q24 197 37 244t54.5 65.5t113.5 18.5q68 0 99 -21t24 -63q-3 -16 -12 -43t-19 -51.5t-28.5 -70.5t-30.5 -75l-230 -579 q-13 -10 -38.5 -10t-42.5 10z" />
<glyph unicode="&#x22;" horiz-adv-x="983" d="M418 827l41 420q9 91 16 117q12 46 41 58t94 12q19 0 31 -0.5t27.5 -1.5t24 -3t20 -5.5t15 -8.5t9 -12t3.5 -17t-3 -22q-8 -31 -49 -117l-192 -420q-20 -12 -42 -12t-36 12zM827 827l41 420q9 85 17 117q12 46 41 58t94 12q19 0 31 -0.5t27.5 -1.5t24 -3t20 -5.5t15 -8.5 t9 -12t3.5 -17t-3 -22q-8 -31 -49 -117l-193 -420q-20 -12 -42.5 -12t-35.5 12z" />
<glyph unicode="#" d="M119 379l43 133h209l129 299h-201l45 133h213l141 334h131l-143 -334h197l141 334h131l-143 -334h184l-39 -133h-203l-129 -299h181l-43 -133h-193l-160 -373h-125l158 373h-199l-161 -373h-125l161 373h-200zM500 512h198l127 299h-196z" />
<glyph unicode="$" d="M77.5 306q6.5 92 28.5 161q10 12 33 12t35 -12q12 -133 77 -226t163 -126l145 454q-113 73 -152 110q-96 91 -96 218q0 174 132.5 279.5t347.5 105.5l51 160q14 15 47.5 15t50.5 -15l-53 -166q78 -11 241 -70q4 -151 -38 -295q-9 -9 -32.5 -9t-35.5 9q-3 108 -47 175.5 t-121 89.5l-131 -404q66 -34 114 -67.5t89.5 -79t62.5 -104.5t21 -130q0 -175 -141 -283t-375 -108q-11 0 -19 2l-61 -190q-20 -15 -53 -15t-46 15l64 198q-114 18 -196.5 64.5t-100.5 95.5q-11 44 -4.5 136zM506 96q4 -2 16 -2q99 0 170.5 58.5t71.5 152.5 q0 79 -30.5 127.5t-90.5 87.5zM537 987q0 -97 104 -166l119 367q-109 -1 -166 -62.5t-57 -138.5z" />
<glyph unicode="%" horiz-adv-x="1814" d="M279 788q0 91 33.5 184t90 168.5t139.5 123t175 47.5q131 0 199.5 -76t68.5 -211q0 -66 -19 -136t-57.5 -136.5t-90 -119t-123 -84.5t-150.5 -32q-130 0 -198 74t-68 198zM465 715q0 -52 19.5 -86.5t60.5 -34.5q70 0 135 117q44 81 84.5 207.5t40.5 203.5 q0 50 -19.5 80.5t-60.5 30.5q-69 0 -133 -111q-50 -84 -88.5 -203.5t-38.5 -203.5zM475 -33l1018 1372q26 3 52.5 -10.5t29.5 -38.5l-1018 -1372q-29 -6 -52.5 8.5t-29.5 40.5zM1073 244q0 91 33.5 184t90 168t139.5 122.5t175 47.5q131 0 200 -76t69 -211q0 -83 -31 -171 t-86 -164t-140.5 -124.5t-183.5 -48.5q-130 0 -198 74.5t-68 198.5zM1260 170q0 -53 19 -87t60 -34q37 0 72.5 33.5t63.5 83.5q43 80 83.5 207.5t40.5 204.5q0 110 -79 110q-35 0 -70.5 -30.5t-63.5 -79.5q-49 -83 -87.5 -203t-38.5 -205z" />
<glyph unicode="&#x26;" horiz-adv-x="1683" d="M193 383q0 110 45 229t153 224q62 61 135.5 99.5t115 48t67.5 9.5q47 0 78 -16.5t43 -35.5t22 -48q60 49 126.5 121t100.5 123q64 95 64 157q0 36 -21 64q-26 30 -26 67q0 59 38 95t91 36q51 0 90 -41t39 -112q0 -87 -64 -182.5t-215 -241.5q-115 -114 -320 -283 t-337 -268q25 -112 119 -181t223 -69q252 0 418 254q110 170 106 318q-19 22 -55.5 39.5t-75.5 17.5q-36 0 -62 -23.5t-26 -54.5q0 -35 25 -80q20 -33 20 -61q0 -33 -25 -58.5t-71 -25.5q-42 0 -69 34t-27 85q0 126 145 245q54 45 112 64.5t91 19.5q78 0 141.5 -39.5 t128.5 -109.5q7 -8 19 -22q44 -49 55 -53l6 -1q16 0 25.5 13.5t9.5 31.5q0 24 -19 68q-10 30 -10 49q0 23 21.5 47.5t58.5 24.5q50 0 82.5 -38t32.5 -102q0 -35 -16 -71t-36 -56q-16 -16 -53 -26q-96 -24 -186 -90q-13 -8 -30.5 -5.5t-27.5 15.5q-41 59 -106 110v-112 q0 -32 -16 -89t-64.5 -145t-118.5 -159q-112 -114 -247 -168t-269 -54q-95 0 -172.5 23.5t-129 63.5t-86.5 93.5t-50.5 111.5t-15.5 120zM406 522q31 27 85 71.5t93.5 78t54.5 49.5q29 33 29 80q0 28 -19 50.5t-43 22.5q-26 0 -63.5 -26t-65.5 -74q-71 -116 -71 -252z" />
<glyph unicode="'" horiz-adv-x="536" d="M403 827l41 420q9 85 17 117q12 46 41 58t94 12q19 0 31 -0.5t27.5 -1.5t24 -3t20 -5.5t15 -8.5t9 -12t3.5 -17t-3 -22q-8 -31 -49 -117l-193 -420q-20 -12 -42.5 -12t-35.5 12z" />
<glyph unicode="(" horiz-adv-x="696" d="M203 311q0 239 90 462t252 386q80 80 169.5 144t131.5 85.5t106 51.5q20 -1 32 -15t7 -28q-97 -55 -191.5 -149t-170.5 -216q-117 -185 -182.5 -401t-65.5 -441q0 -139 30 -267t87 -216q-2 -16 -14 -28t-31 -13q-118 109 -184 286.5t-66 358.5z" />
<glyph unicode=")" horiz-adv-x="696" d="M-127 -291q98 55 192.5 149t170.5 216q117 185 182 400.5t65 440.5q0 140 -29.5 268t-86.5 216q2 16 14 28t31 13q118 -109 184 -286.5t66 -358.5q0 -238 -90.5 -461.5t-252.5 -386.5q-80 -80 -169.5 -144t-131.5 -85.5t-106 -51.5q-20 1 -32 15t-7 28z" />
<glyph unicode="*" horiz-adv-x="819" d="M259 899q-4 20 5 33l266 108l-194 203q0 21 12.5 39t28.5 21l223 -185l88 256q14 7 34 3t28 -13l-35 -272l278 75q15 -9 20 -29t-3 -40l-265 -107l187 -209q0 -19 -13.5 -34.5t-33.5 -16.5l-211 182l-92 -258q-10 -5 -32 -0.5t-30 15.5l39 270l-283 -70q-13 9 -17 29z " />
<glyph unicode="+" d="M143 362v148h322v326h180v-326h320v-148h-320v-362h-180v362h-322z" />
<glyph unicode="," horiz-adv-x="532" d="M-41.5 -218q-6.5 23 6.5 42q87 26 150 84t63 121q0 61 -67 100q-41 20 -41 78q0 55 40.5 96t98.5 41q68 0 125 -57.5t57 -163.5q0 -128 -111 -227.5t-292 -143.5q-23 7 -29.5 30z" />
<glyph unicode="-" horiz-adv-x="655" d="M98 401q0 45 31 84l489 45q29 -32 29 -86q0 -46 -26 -79l-492 -46q-31 31 -31 82z" />
<glyph unicode="." horiz-adv-x="532" d="M66 115q0 75 50.5 133.5t127.5 58.5q62 0 99.5 -40.5t37.5 -110.5q0 -77 -50 -131t-124 -54q-61 0 -101 39t-40 105z" />
<glyph unicode="/" horiz-adv-x="614" d="M-18 -33l630 1417h189l-631 -1417h-188z" />
<glyph unicode="0" d="M137 375q0 182 77 383t194 332q197 221 411 221q78 0 139 -24t99.5 -63t63 -94t34.5 -112.5t10 -122.5q0 -169 -79 -374t-197 -345q-80 -93 -185.5 -149t-224.5 -56q-79 0 -140.5 23t-99 60.5t-61 91t-32.5 109t-9 120.5zM383 227q0 -81 28 -121t74 -40q101 0 201 204 q92 186 163 415.5t71 365.5q0 28 -0.5 44.5t-5.5 42.5t-14 41t-27 26.5t-44 11.5q-35 0 -70 -21.5t-66.5 -63.5t-59 -88t-55.5 -110.5t-47.5 -114.5t-43.5 -117q-50 -135 -77 -264.5t-27 -210.5z" />
<glyph unicode="1" d="M147.5 32.5q2.5 24.5 20.5 33.5l72 10q83 12 110 42t64 148l207 649q36 111 36 148q3 45 -65 51l-92 10q-15 9 -14 37t18 35q159 27 284 59q38 9 85 25t76.5 27.5t31.5 11.5q13 0 22 -9t11 -20q-36 -84 -86 -237l-250 -787q-15 -49 -21 -78.5t-6 -51t12.5 -33t30.5 -17 t51 -10.5l76 -10q15 -7 11.5 -36.5t-21.5 -35.5q-153 6 -344 6q-164 0 -305 -6q-17 14 -14.5 38.5z" />
<glyph unicode="2" d="M-44.5 15.5q-2.5 13.5 3.5 25.5q40 25 83.5 56.5t73.5 54.5t110.5 87t133.5 105q65 51 117 94.5t123.5 112t119 127.5t82 128t34.5 126q0 221 -215 221q-68 0 -147.5 -52.5t-129.5 -135.5q-21 -5 -42.5 8t-20.5 33q75 143 203 224t280 81q162 0 266.5 -88.5t104.5 -245.5 q0 -81 -33 -153.5t-106.5 -142.5t-123.5 -108.5t-151 -107.5l-39 -27l-123 -86q-149 -104 -149 -125q0 -22 63 -22h238q70 0 107 9t61 29t65 70q13 12 38.5 3t31.5 -31q-28 -80 -76.5 -171t-81.5 -120q-23 1 -71.5 2t-73.5 2q-49 2 -154 2h-340q-79 0 -250 -6 q-9 8 -11.5 21.5z" />
<glyph unicode="3" d="M-33 29q0 46 35 80t84 34q20 0 38 -5.5t34 -19.5t23.5 -21.5t22 -27t15.5 -20.5q52 -61 117 -61q76 0 147.5 36.5t124 98t84.5 146t33 175.5q2 102 -52 164t-155 62q-92 0 -192 -86q-32 3 -46.5 40.5t7.5 63.5q229 79 356 156q162 98 162 203q0 61 -42.5 98t-113.5 37 q-63 0 -134.5 -47.5t-125.5 -124.5q-22 -6 -39 7t-20 34q73 123 193 191.5t257 68.5q78 0 145 -24t112.5 -78t45.5 -128q0 -88 -78 -153t-229 -119q-24 -7 -13 -18q7 -6 23 -7q102 -8 177 -83t75 -203q0 -133 -89.5 -255.5t-215.5 -203.5q-122 -79 -265.5 -116.5 t-256.5 -37.5q-112 0 -178 36t-66 108z" />
<glyph unicode="4" d="M69 408q-4 18 5 38l962 967q33 33 68 33h76q18 0 24 -6.5t0 -19.5t-24 -31l-873 -857q-12 -11 -15 -18t8 -12.5t42 -5.5h246q30 0 37.5 4.5t13.5 25.5l98 316q7 22 20.5 38t23.5 22.5t30 15.5q36 19 103.5 40t89.5 21q37 0 30 -35l-129 -407q-9 -26 -4.5 -33.5t37.5 -7.5 h135q23 -11 13.5 -57t-37.5 -58h-146q-33 0 -41.5 -7.5t-19.5 -41.5l-29 -84q-24 -72 -23.5 -107t22 -50t75.5 -21l35 -4q15 -7 11 -36.5t-22 -35.5q-147 6 -303 6q-166 0 -301 -6q-17 14 -14.5 38.5t20.5 33.5l72 8q82 9 108.5 37.5t59.5 136.5l29 92q8 26 2 33.5t-37 7.5 h-459q-15 9 -19 27z" />
<glyph unicode="5" d="M-11 -98.5q-3 31.5 17 43.5q74 4 150 16.5t159.5 34.5t156 57.5t131 82t92.5 112.5t34 143q0 64 -22.5 113.5t-60 82.5t-95.5 56.5t-120.5 36.5t-143.5 22q-66 6 -31 72l217 432q17 33 38.5 44.5t76.5 17.5l561 71q17 0 23.5 -11t3.5 -23q-17 -49 -55.5 -102.5 t-82.5 -92.5l-497 -63q-49 -5 -74 -60l-18 -39q-12 -20 -8.5 -30.5t10 -14t18.5 -4.5q84 -11 158 -30.5t145 -55.5t121 -84t78.5 -120t25.5 -160q-6 -157 -107.5 -276t-266.5 -193q-119 -53 -282.5 -83.5t-320.5 -35.5q-28 9 -31 40.5z" />
<glyph unicode="6" d="M127 393q0 196 120 412t337 366q156 107 360 174.5t379 73.5q18 -4 21.5 -31.5t-9.5 -37.5q-179 -31 -311.5 -96.5t-265.5 -178.5q-158 -136 -257.5 -348.5t-99.5 -411.5q0 -38 2 -67.5t11 -65.5t23.5 -59.5t41.5 -40t64 -16.5q63 0 113.5 44.5t79 109.5t43 129t14.5 114 q0 190 -113 213q-32 8 -88 2q-12 6 -15 26t9 29q105 78 205 78q131 0 210.5 -86t79.5 -227q0 -148 -72.5 -269.5t-194.5 -189.5t-265 -68q-207 0 -314.5 114.5t-107.5 307.5z" />
<glyph unicode="7" d="M172 -55l750 966q86 115 86 140q0 12 -14 16t-44 4h-381q-94 0 -146.5 -20t-94.5 -90q-13 -10 -38.5 -2t-29.5 28q78 141 133 301q59 -6 252 -6h434q197 0 244 6q21 -9 14 -33q-90 -101 -272 -337l-809 -1045q-30 -8 -58.5 15.5t-25.5 56.5z" />
<glyph unicode="8" d="M90 293q0 251 350 391q-57 43 -91 106.5t-34 129.5q0 112 60.5 202.5t159 139.5t213.5 49q165 0 275 -80t110 -234q0 -59 -25 -110.5t-68.5 -89.5t-92.5 -65.5t-107 -49.5q81 -57 128.5 -129t47.5 -174q0 -182 -141 -293t-371 -111q-183 0 -298.5 82t-115.5 236zM344 301 q0 -101 55 -166t150 -65q87 0 146 60.5t59 156.5q0 49 -15.5 94.5t-36 76.5t-56.5 64t-60.5 50.5t-63.5 43.5q-79 -47 -128.5 -131.5t-49.5 -183.5zM559 1022q0 -50 15.5 -91t47 -74.5t60 -55.5t74.5 -51q59 25 103 104.5t44 167.5q0 82 -44.5 138.5t-123.5 56.5 q-76 0 -126 -57.5t-50 -137.5z" />
<glyph unicode="9" d="M-15.5 -90q-4.5 26 9.5 39q175 41 324 120t253 183q140 137 229 335.5t89 387.5q0 242 -146 242q-70 0 -128 -66.5t-86.5 -155t-28.5 -170.5q0 -87 24.5 -135t77.5 -72q36 -15 111 -18q6 -6 6 -21.5t-6 -27.5q-32 -23 -88 -38t-99 -15q-132 0 -212.5 84t-80.5 227 q0 98 42.5 190.5t113 160.5t167.5 109.5t202 41.5q192 0 296.5 -117t104.5 -317q0 -205 -125 -407.5t-323 -334.5q-150 -101 -364 -177t-341 -81q-17 7 -21.5 33z" />
<glyph unicode=":" horiz-adv-x="532" d="M66 115q0 75 50.5 133.5t127.5 58.5q62 0 99.5 -40.5t37.5 -110.5q0 -77 -50 -131t-124 -54q-61 0 -101 39t-40 105zM215 614q0 75 50.5 134t127.5 59q62 0 99.5 -41t37.5 -111q0 -77 -50 -130.5t-124 -53.5q-62 0 -101.5 38.5t-39.5 104.5z" />
<glyph unicode=";" horiz-adv-x="532" d="M-41.5 -218q-6.5 23 6.5 42q87 26 150 84t63 121q0 61 -67 100q-41 20 -41 78q0 55 40.5 96t98.5 41q68 0 125 -57.5t57 -163.5q0 -128 -111 -227.5t-292 -143.5q-23 7 -29.5 30zM215 614q0 75 50.5 134t127.5 59q62 0 99.5 -41t37.5 -111q0 -77 -50 -130.5t-124 -53.5 q-62 0 -101.5 38.5t-39.5 104.5z" />
<glyph unicode="&#x3c;" d="M135 362v121l797 365v-170l-586 -252v-4l586 -254v-168z" />
<glyph unicode="=" d="M143 217v148h822v-148h-822zM143 512v147h822v-147h-822z" />
<glyph unicode="&#x3e;" d="M207 0v168l586 254v4l-586 252v170l797 -365v-121z" />
<glyph unicode="?" horiz-adv-x="716" d="M150 115q0 75 50.5 133.5t127.5 58.5q62 0 99.5 -40.5t37.5 -110.5q0 -77 -50 -131t-124 -54q-61 0 -101 39t-40 105zM240 621q0 89 56 146.5t173 98.5l152 54q64 23 98.5 45t34.5 49q0 34 -36 58t-91 24q-59 0 -105 -9q-74 -12 -76 -12q-35 0 -56 24.5t-21 59.5 q0 64 53.5 114t148.5 50q109 0 202 -104t93 -242q0 -86 -56 -158t-159 -114l-155 -64q-72 -29 -103 -56.5t-31 -62.5q0 -50 9 -96q-9 -12 -30 -15t-34 5q-30 42 -48.5 98.5t-18.5 106.5z" />
<glyph unicode="@" horiz-adv-x="1587" d="M242 362q0 140 43.5 263.5t120.5 216.5t180 160.5t225 102t252 34.5q141 0 257 -45.5t189.5 -122.5t113.5 -176t40 -209q0 -100 -36.5 -186t-104.5 -149.5t-171.5 -99.5t-230.5 -36q-34 0 -60 4.5t-40 11t-23 14.5t-11.5 14.5t-2.5 12.5q0 14 18 66l43 112l-4 2 q-76 -93 -190 -165t-180 -72q-43 0 -66.5 26.5t-23.5 63.5q0 40 38.5 129.5t116.5 189.5q82 102 190.5 178t213.5 76q53 0 69 -33l49 93q20 4 33 4q69 0 109 -29q-10 -23 -113.5 -266t-118.5 -281q-14 -38 -8.5 -53.5t37.5 -15.5q63 0 126 26.5t115 74t84.5 122t32.5 162.5 q0 138 -66 245t-177.5 163.5t-247.5 56.5q-138 0 -257 -57.5t-199 -152.5t-125.5 -219.5t-45.5 -257.5q0 -72 16 -142.5t57.5 -144.5t104 -130t164.5 -91.5t230 -35.5q72 0 139.5 13t96.5 23.5t79 30.5q15 -6 21 -29t-3 -36q-86 -48 -193.5 -71t-205.5 -23q-110 0 -211 24 t-190.5 75.5t-155.5 125t-104.5 180t-38.5 233.5zM793 266q0 -28 20 -28q39 0 123 77q59 55 133 169.5t92 174.5q-19 52 -61 52q-28 0 -101 -64q-78 -70 -142 -194t-64 -187z" />
<glyph unicode="A" horiz-adv-x="1228" d="M-160 30v6q0 23 13 32l49 8q77 12 115.5 42.5t115.5 143.5q91 135 275.5 405.5t275.5 405.5q6 10 20.5 31.5t21 31.5t18.5 28.5t18 28.5t15.5 25t14.5 24.5t10.5 20.5t8.5 19t4 14q32 2 65.5 12t59 22.5t45.5 24.5t31 21l12 8h4q37 0 37 -32q0 -181 -7 -545t-7 -545 q0 -39 0.5 -56t2 -41.5t5.5 -34t10.5 -23t17.5 -18.5t25.5 -9.5t36.5 -7.5l49 -6q10 -7 10 -28v-10q-2 -28 -16 -34q-114 6 -289 6t-270 -6q-18 5 -19.5 33.5t9.5 38.5l47 6q66 8 85 27.5t21 60.5l8 260q1 31 -8.5 37t-56.5 6h-254q-48 0 -60 -5t-30 -36l-135 -217 q-39 -68 -39 -90q0 -12 19.5 -22t47.5 -15l74 -10q15 -10 11.5 -38.5t-21.5 -35.5q-153 6 -277 6q-111 0 -196 -6q-21 8 -23 36zM492 580q8 -8 51 -9h196q36 0 44 8.5t10 47.5l12 252q6 169 10 219h-4q-31 -49 -129 -201l-178 -281q-14 -20 -14 -30q0 -4 2 -6z" />
<glyph unicode="B" horiz-adv-x="1298" d="M1 32q3 28 22 31l59 11q38 7 56.5 14t38.5 32t33.5 62t37.5 113l241 772q12 39 18.5 62t10.5 45.5t2.5 34.5t-8 23t-18 16t-29.5 9l-59 13q-14 12 -10 37t22 32q215 19 403 19q316 0 439 -92q108 -81 108 -219q0 -60 -25 -111t-66.5 -85.5t-90 -56.5t-101.5 -32 q-24 -5 -38 -9t-18 -7t-3 -5q-3 -4 5 -8t36 -14q85 -32 139 -106.5t54 -170.5q0 -164 -110 -276t-280 -146q-133 -28 -346 -28q-49 0 -131 4t-100 4q-125 0 -281 -6q-12 7 -12 28q0 5 1 10zM494 128q26 -42 106 -42q94 0 176.5 43t135.5 125.5t53 187.5q0 109 -65 169.5 t-185 60.5q-66 0 -82.5 -9.5t-30.5 -52.5l-106 -338q-15 -53 -15 -90q0 -34 13 -54zM664 772q12 -10 73 -10q155 0 254 88t99 223q0 83 -54.5 137t-152.5 54q-53 0 -67.5 -11t-31.5 -65l-118 -369q-7 -20 -7 -32q0 -11 5 -15z" />
<glyph unicode="C" horiz-adv-x="1347" d="M199 506q1 189 84.5 359.5t208.5 281.5q114 101 282 169t381 68q227 0 410 -75q-41 -94 -101 -318q-10 -17 -41 -17t-37 17q2 28 2 53q0 116 -48 174q-60 72 -203 72q-102 0 -199 -46.5t-173 -126.5t-134.5 -182t-89.5 -217.5t-31 -228.5q0 -97 19 -172.5t49.5 -122.5 t73 -78t86 -43t91.5 -12q121 0 219.5 71t211.5 222q17 12 44 8.5t31 -20.5q-27 -84 -71.5 -180.5t-73.5 -143.5q-2 0 -131 -25.5t-236 -25.5q-154 0 -274.5 41t-196.5 114q-76 72 -115 170q-38 95 -38 208v6z" />
<glyph unicode="D" horiz-adv-x="1579" d="M-1 32q3 28 24 31l59 11q48 8 70.5 23.5t42.5 57t51 140.5l241 772q15 47 21.5 72t9.5 49t-3 35t-18 19t-34 13l-60 15q-14 12 -9.5 37t22.5 32q211 19 446 19q354 -3 537 -125q104 -70 163.5 -184.5t59.5 -262.5q0 -142 -55 -276t-154 -236q-279 -286 -823 -286 q-21 0 -162 6q-70 6 -123 6q-140 0 -293 -6q-13 8 -13 29v9zM500 174q-2 -42 33.5 -67t101.5 -25q213 0 401 156q139 114 209 282t70 328q0 51 -6.5 98.5t-31 108t-65 104.5t-116 74.5t-176.5 30.5q-65 0 -84 -14.5t-39 -80.5l-269 -852q-28 -85 -28 -143z" />
<glyph unicode="E" horiz-adv-x="1220" d="M-20 32q2 28 24 34l70 10q40 6 59.5 13t40 31.5t35 61.5t37.5 113l239 762q17 55 24.5 86t10 58t-6 40.5t-25 22.5t-46.5 14l-49 8q-14 10 -10 37.5t25 34.5q144 -6 280 -6h455q231 0 278 6q-55 -137 -104 -322q-7 -17 -37.5 -19t-40.5 11q3 37 3 67q0 57 -11 91 q-24 71 -172 71h-160q-53 0 -67 -11.5t-33 -69.5l-113 -357q-13 -43 -7 -52t46 -9h135q80 0 113.5 20.5t73.5 93.5l26 50q15 13 44 12.5t34 -14.5q-4 -11 -76 -218q-12 -38 -61 -217q-12 -12 -42 -13t-36 11l6 52q3 22 3 39q1 40 -15 54q-22 20 -103 21h-135q-40 0 -53 -10 t-25 -51l-77 -250q-35 -107 -35 -161q0 -22 6 -34q14 -28 53.5 -38.5t147.5 -10.5q53 0 82 1.5t67 9t64 22t60 40.5t68 66t76 97q17 13 45 9t37 -22q-28 -81 -76.5 -182.5t-80.5 -140.5q-126 4 -232 4q-86 2 -262 2h-266q-144 0 -297 -6q-14 8 -14 30v8z" />
<glyph unicode="F" horiz-adv-x="1142" d="M18 66l64 10q37 6 55 13t37.5 31t34 62t37.5 113l239 762q17 55 24.5 86t10 58t-6 40.5t-25 22.5t-46.5 14l-49 8q-13 8 -9 36t24 36q147 -6 280 -6h440q232 0 279 6q-56 -141 -102 -322q-7 -17 -38.5 -19t-41.5 11q3 37 3 67q0 57 -11 91q-24 71 -170 71h-152 q-52 0 -64.5 -11t-31.5 -70l-119 -375q-13 -41 -7 -50.5t46 -9.5h160q81 0 114 19.5t72 93.5l27 49q15 13 43.5 12.5t33.5 -14.5q-11 -28 -23 -63t-27.5 -81t-24.5 -73q-12 -34 -23 -71.5t-22.5 -81t-16.5 -62.5q-12 -14 -42 -14.5t-36 12.5l4 49q1 17 1 31q1 47 -15 63 q-20 20 -100 21h-160q-38 0 -51 -10.5t-25 -51.5l-86 -274q-17 -55 -24.5 -86.5t-9.5 -59t7.5 -41t27.5 -22t50 -12.5l68 -8q8 -8 4 -36t-18 -36q-173 6 -318 6q-140 0 -293 -6q-14 8 -14 34q0 32 16 38z" />
<glyph unicode="G" horiz-adv-x="1548" d="M209 520q0 182 80 345.5t207 273.5q281 245 706 245q232 0 418 -75q-51 -115 -102 -322q-10 -17 -40 -17t-36 17q3 30 3 58q0 113 -51 172q-62 73 -214 73q-107 0 -209 -46.5t-183 -127.5t-143 -184.5t-95.5 -223.5t-33.5 -239q0 -90 20 -161.5t53 -117t79.5 -75t96 -42 t105.5 -12.5q84 0 119.5 29.5t63.5 122.5l53 176q13 41 14.5 66t-10.5 41t-32.5 23t-59.5 13l-66 11q-18 9 -15.5 35.5t21.5 35.5q209 -6 340 -6q158 0 240 6q16 -10 14 -35.5t-16 -35.5l-49 -8q-47 -7 -65.5 -33.5t-43.5 -110.5l-45 -155q-25 -83 -25 -110q0 -4 1 -7 q5 -18 24 -23q6 -6 0.5 -25.5t-20.5 -23.5q-56 -9 -137 -31q-68 -23 -162 -36t-174 -13q-313 0 -472 150t-159 403z" />
<glyph unicode="H" horiz-adv-x="1593" d="M10 32q2 28 23 34l49 8q48 8 70.5 23.5t42.5 57t51 140.5l239 762q17 55 24.5 86t9.5 58.5t-7.5 41t-27.5 22.5t-50 13l-63 8q-14 15 -9 39t25 33q172 -6 315 -6q138 0 285 6q16 -9 13 -37.5t-23 -34.5l-59 -8q-43 -5 -64.5 -21.5t-41 -58t-50.5 -141.5l-72 -232 q-17 -47 -4 -57t96 -10h332q83 0 103.5 10.5t37.5 62.5l72 226q36 105 36 152q1 7 -1 15q-8 44 -84 54l-57 8q-12 8 -7 36t25 36q156 -6 303 -6q137 0 293 6q11 -8 11 -30v-8q-2 -28 -21 -34l-60 -10q-46 -8 -67.5 -22.5t-42.5 -56.5t-51 -140l-238 -762 q-17 -55 -24.5 -85.5t-9.5 -58t7.5 -40.5t27.5 -21.5t50 -13.5l64 -10q10 -9 4.5 -36t-19.5 -36q-176 6 -317 6q-144 0 -285 -6q-16 9 -13.5 37.5t23.5 34.5l50 8q49 8 72 23.5t43 57t51 140.5l92 301q11 38 -2 45.5t-95 7.5h-327q-64 0 -87 -4t-34.5 -16.5t-22.5 -48.5 l-92 -285q-28 -89 -34 -131q-1 -10 -1 -17q1 -27 15 -45q18 -22 71 -28l68 -8q9 -8 6.5 -36t-16.5 -36q-179 6 -326 6q-144 0 -282 -6q-14 8 -14 30q1 4 1 8z" />
<glyph unicode="I" horiz-adv-x="749" d="M0 32q4 30 27 34l55 10q37 7 55 14t37.5 31t34 61.5t37.5 112.5l239 762q17 55 24.5 85.5t9.5 57.5t-7.5 40t-27.5 21.5t-50 14.5l-57 10q-12 9 -8.5 37t22.5 35q172 -6 316 -6q135 0 288 6q13 -8 13 -29v-9q-3 -28 -23 -34l-59 -10q-37 -6 -55 -13t-37.5 -31t-34 -62 t-37.5 -113l-240 -762q-17 -55 -25 -85.5t-10 -57t8 -40t28 -22t50 -14.5l58 -10q10 -9 4.5 -36t-19.5 -36q-164 6 -307 6q-144 0 -297 -6q-13 7 -13 28q0 4 1 10z" />
<glyph unicode="J" horiz-adv-x="753" d="M-270 -324q0 38 41 93q36 45 73 45q45 0 99 -58q5 -5 16 -16.5t16.5 -16.5t14 -12t15.5 -9.5t15 -2.5q54 0 113 164l21.5 64.5t48 145.5t59.5 185l250 799q17 55 24.5 86t9.5 58.5t-7.5 40.5t-27.5 22t-50 14l-66 10q-15 9 -12.5 35t23.5 35q185 -6 323 -6q140 0 281 6 q13 -7 13 -28q0 -4 -1 -10q-3 -28 -23 -32l-47 -10q-30 -6 -46 -12t-33 -18.5t-29 -36.5t-26 -59t-32 -95l-262 -840q-67 -218 -149 -352q-167 -277 -475 -277q-73 0 -121.5 20.5t-48.5 67.5z" />
<glyph unicode="K" horiz-adv-x="1417" d="M-1 32q3 28 24 34l59 10q37 6 55 13t37.5 31t34 62t37.5 113l239 762q17 55 24.5 85.5t9.5 57.5t-7.5 40t-27.5 21.5t-50 14.5l-55 10q-15 9 -11.5 36t21.5 36q169 -6 313 -6q141 0 291 6q18 -9 15 -37.5t-23 -34.5l-59 -8q-47 -6 -70 -22t-43 -57.5t-51 -141.5l-84 -266 q-7 -25 -7 -39q0 -21 15 -21q89 0 223 123l265 240q116 116 124 125q23 23 23 36q0 15 -35 23l-78 10q-14 11 -11.5 36.5t24.5 33.5q173 -6 272 -6q161 0 250 6q20 -6 20 -36q0 -27 -16 -36q-122 -22 -186 -45q-67 -24 -142.5 -77.5t-222.5 -178.5l-141 -121 q-29 -24 -52.5 -50.5t-23.5 -37.5q0 -18 20 -76q64 -168 232 -542q19 -42 43 -60t63 -24l56 -8q12 -12 8.5 -37.5t-15.5 -34.5q-141 6 -286 6q-126 0 -273 -6q-18 9 -19.5 36t13.5 36l64 12q33 6 42.5 19.5t2.5 37.5q-4 17 -19 55.5t-33 82.5t-22 55l-65 161 q-41 99 -60.5 129.5t-50.5 30.5q-32 0 -47.5 -27t-42.5 -112l-68 -215q-17 -54 -25 -85.5t-10 -58.5t8 -40.5t28 -22.5t50 -14l54 -8q12 -9 9 -36t-18 -36q-166 6 -313 6q-140 0 -293 -6q-13 8 -13 29v9z" />
<glyph unicode="L" horiz-adv-x="1191" d="M16 66l68 10q37 6 55 13t37.5 31t34 62t37.5 113l239 762q17 55 24.5 86t9.5 58.5t-7.5 40.5t-27.5 22t-50 14l-53 8q-15 9 -10.5 37.5t24.5 34.5q159 -6 312 -6q146 0 278 6q19 -9 16.5 -37.5t-22.5 -34.5l-53 -10q-37 -7 -55 -14t-37.5 -31t-34 -61.5t-37.5 -112.5 l-227 -719q-32 -99 -32 -155q0 -22 5 -38q9 -29 48 -40t140 -11q45 0 71 1t60 5.5t56 14t51 26t55 42.5t57.5 62t67.5 85q17 13 46 9t36 -22q-25 -77 -74.5 -179.5t-81.5 -143.5q-34 1 -113.5 2t-119.5 2q-43 0 -131.5 1t-130.5 1h-236q-135 0 -299 -6q-18 9 -18 36 q0 30 22 36z" />
<glyph unicode="M" horiz-adv-x="1810" d="M-45 66l49 8q79 13 119 45q28 27 58.5 89.5t86.5 213.5l238 637q32 85 38 127q2 11 2 21q0 27 -13 43q-18 22 -68 28l-57 8q-14 9 -9.5 36t25.5 36q170 -6 315 -6q78 0 189 6q-8 -21 -13.5 -47.5t-7 -60.5t-1.5 -59.5t3 -66.5t4.5 -59.5t5.5 -60t5 -46.5l16 -167 q25 -244 35 -308q12 16 71.5 96.5t106.5 147.5l236 334q26 36 47.5 69t37.5 61t27 48.5t20.5 42.5t13.5 31t11 27l6 18q67 -6 197 -6q136 0 289 6q16 -8 16 -29v-9q-4 -28 -24 -34l-58 -8q-37 -5 -57 -13t-42.5 -33.5t-40.5 -73t-40 -130.5l-199 -733q-14 -50 -19.5 -74 t-9.5 -52.5t-1 -40t12.5 -24.5t26 -18t43.5 -10l57 -10q8 -9 3 -36t-19 -36q-164 6 -312 6q-139 0 -289 -6q-20 7 -18.5 36.5t23.5 35.5l59 10q49 8 72 21.5t45.5 57t52.5 140.5l180 592q44 148 70 239l-4 4q-45 -58 -162 -225l-293 -424q-147 -212 -291 -448 q-20 -12 -48.5 -9.5t-43.5 17.5q1 15 1 37q0 109 -21 381l-23 301q-7 97 -35 350h-4q-48 -118 -121 -324l-104 -297q-71 -205 -90.5 -265.5t-20.5 -90.5v-5q0 -34 49 -44l99 -18q8 -13 4.5 -39t-15.5 -33q-264 6 -270 6q-9 0 -225 -6q-12 12 -12 35q0 28 16 37z" />
<glyph unicode="N" horiz-adv-x="1478" d="M-16 29.5q0 26.5 18 36.5l47 10q71 15 103.5 43.5t58.5 99.5q52 152 96 295l168 543q17 56 24.5 86.5t10 58.5t-6.5 41t-27 22t-50 13l-57 8q-14 9 -9 36t23 36q159 -6 258 -6q97 0 164 6q-1 -9 -1 -19q0 -22 6 -49q8 -40 37.5 -113.5t48 -117t69.5 -156.5l96 -213 q93 -207 129 -274q18 30 47 127l88 295q64 219 80 292q10 42 10 70q-1 23 -7 37q-16 31 -89 41l-62 8q-14 13 -9.5 37.5t24.5 34.5q163 -6 254 -6q96 0 237 6q11 -8 11 -30v-6q-2 -26 -15 -36l-49 -10q-70 -14 -102.5 -41.5t-59.5 -101.5q-73 -213 -98 -295l-150 -490 q-41 -135 -96 -342q-25 -22 -129 -22q-2 0 -18 42t-45.5 115.5t-53.5 128.5l-219 498q-127 294 -133 305q-13 -33 -51 -160l-121 -399q-69 -222 -80 -293q-9 -41 -9 -68q0 -24 7 -37q14 -29 88 -40l62 -10q9 -13 7.5 -37.5t-17.5 -34.5q-166 6 -259 6q-97 0 -235 -6 q-14 9 -14 35.5z" />
<glyph unicode="O" horiz-adv-x="1552" d="M203 514q0 194 87.5 378t239.5 308q225 184 506 184q79 0 154.5 -17t151 -59.5t131.5 -106t91 -165.5t35 -229q0 -161 -68 -324.5t-183 -281.5q-92 -94 -241.5 -164t-320.5 -70q-135 0 -240.5 36t-168 92t-103.5 131t-56 145t-15 143zM496 403q0 -153 68.5 -247.5 t193.5 -94.5q152 0 280 148q134 155 201.5 350.5t67.5 392.5q0 172 -67 255t-181 83q-105 0 -219 -88q-133 -107 -238.5 -334t-105.5 -465z" />
<glyph unicode="P" horiz-adv-x="1253" d="M23 63l59 11q36 6 54.5 13t37.5 32t33 62.5t39 113.5l246 772q15 45 22 71.5t9.5 49.5t-3.5 34.5t-18.5 19.5t-34.5 13l-66 15q-14 12 -9.5 37t22.5 32q215 19 399 19q270 0 401 -72q78 -43 124 -118t46 -173q0 -88 -34 -161t-90.5 -123t-131.5 -84.5t-155.5 -50 t-163.5 -15.5q-48 0 -66 2q-11 11 -11 28t11 30q163 26 257 144.5t94 285.5q0 96 -50 154.5t-145 58.5q-50 0 -63 -10t-27 -54l-285 -905q-17 -54 -25 -85.5t-10 -58.5t8 -40.5t28 -22.5t50 -14l64 -11q10 -7 5 -33.5t-19 -35.5q-179 6 -316 6q-140 0 -293 -6q-15 8 -15 34 q0 32 22 35z" />
<glyph unicode="Q" horiz-adv-x="1552" d="M203 514q0 194 87.5 378t239.5 308q225 184 506 184q79 0 154.5 -17t151 -59.5t131.5 -106t91 -165.5t35 -229q0 -161 -68 -324.5t-183 -281.5q-61 -62 -151.5 -117.5t-188.5 -81.5q-12 -4 -15.5 -12.5t8.5 -22.5q257 -241 443 -291q65 -16 149 -16q50 0 82 16 q16 -6 22 -21q3 -8 3 -16q0 -6 -2 -12q-53 -38 -130.5 -57t-156.5 -19q-394 0 -715 365q-3 3 -16.5 18t-18 19.5t-15 13.5t-18.5 13t-16 6q-91 20 -163.5 62.5t-117.5 96t-75 119t-41.5 127t-11.5 123.5zM496 403q0 -153 68.5 -247.5t193.5 -94.5q152 0 280 148 q134 155 201.5 350.5t67.5 392.5q0 172 -67 255t-181 83q-105 0 -219 -88q-133 -107 -238.5 -334t-105.5 -465z" />
<glyph unicode="R" horiz-adv-x="1282" d="M-2 31.5q0 28.5 18 31.5l64 11q36 6 54.5 13t37.5 32t33 62.5t39 113.5l245 772q15 45 22 71.5t9.5 49t-3 34t-16.5 19t-32 12.5l-66 17q-14 12 -9.5 37t22.5 32q230 19 405 19q262 0 400 -66q75 -38 122.5 -109.5t47.5 -166.5q0 -73 -29 -134t-78.5 -102.5t-105.5 -69.5 t-119 -44q-26 -7 -31 -17t-2 -31q40 -225 70.5 -345.5t64.5 -155.5q27 -29 123 -49q13 -11 10.5 -32t-16.5 -32q-49 -12 -188 -12q-111 0 -162 31q-76 50 -101 186l-57 299q-10 52 -32 71t-68 19q-38 0 -49.5 -8t-22.5 -39l-84 -256q-18 -54 -26 -85.5t-10 -57.5t8 -40 t28 -23t51 -15l53 -11q14 -7 10.5 -33.5t-20.5 -35.5q-150 6 -301 6q-140 0 -293 -6q-16 9 -16 37.5zM659 756q-6 -19 -6 -33q-1 -17 9 -23q16 -12 88 -12q142 0 242 110t100 249q0 92 -45 154.5t-148 62.5q-55 0 -70 -11.5t-30 -56.5z" />
<glyph unicode="S" horiz-adv-x="1081" d="M90 145v20q0 139 39 277q9 12 39.5 11.5t40.5 -15.5q9 -129 59 -215q91 -162 267 -162q101 0 172 66t71 182q0 150 -172 273l-51 36q-223 161 -223 343q0 193 142 310q140 115 353 115h7q111 -1 209 -30.5t165 -79.5q-50 -106 -90 -272q-13 -18 -41.5 -16.5t-38.5 16.5 q5 31 5 59q0 81 -42 145q-57 84 -180 84q-110 0 -178 -69t-68 -152q0 -123 175 -240l63 -43q234 -157 234 -382q0 -195 -144 -317t-401 -122q-148 0 -260.5 54t-151.5 124z" />
<glyph unicode="T" horiz-adv-x="1320" d="M289 66l80 10q47 6 70 21.5t42.5 56.5t50.5 141l285 905q13 38 5 47.5t-58 9.5h-84q-112 0 -172 -47q-87 -70 -146 -172q-14 -10 -44.5 -2t-30.5 27q114 236 153 342q9 9 27 9q1 0 2 1q17 0 29 -8q0 -22 10.5 -33t45 -16.5t103.5 -5.5h766q61 0 91 12t53 41q12 9 36.5 7 t30.5 -13q-30 -62 -70 -173t-57 -182q-10 -15 -41.5 -15t-40.5 15q3 43 3 76q0 82 -21 101q-45 36 -147 36h-91q-47 0 -58 -7.5t-24 -49.5l-278 -905q-17 -55 -24.5 -86t-9.5 -58t7.5 -40t27.5 -22t50 -13l76 -10q9 -9 5 -36t-17 -36q-194 6 -328 6q-128 0 -313 -6 q-16 9 -16 36q0 30 22 36z" />
<glyph unicode="U" horiz-adv-x="1497" d="M272 328q0 92 39 217l158 512q17 55 24.5 86t9.5 58.5t-7.5 41t-27.5 22.5t-50 15l-49 8q-16 9 -10 35t28 35q147 -6 297 -6q141 0 285 6q16 -9 12.5 -36.5t-23.5 -33.5l-51 -10q-47 -9 -69 -24t-42 -57t-51 -140l-147 -473q-40 -131 -43 -226v-8q-1 -128 63 -199 q66 -73 201 -73q71 0 132.5 26t106 68t83.5 105.5t65 127.5t51 144l91 289q53 172 79 292q10 42 10 70q-1 22 -7 36q-14 30 -89 42l-61 10q-10 13 -8 36.5t18 33.5q166 -6 258 -6q97 0 238 6q14 -9 14 -33q0 -27 -18 -37l-49 -12q-72 -18 -103.5 -44.5t-58.5 -98.5 q-48 -123 -101 -295l-94 -301q-48 -155 -98.5 -256.5t-136.5 -176.5q-70 -63 -181.5 -100t-230.5 -37q-101 0 -181 19t-143.5 60t-98 112.5t-34.5 169.5z" />
<glyph unicode="V" horiz-adv-x="1335" d="M286 1326q4 25 21 32q117 -6 266 -6q112 0 265 6q17 -8 15 -34.5t-19 -35.5l-74 -16q-52 -11 -55 -45q0 -43 14 -215l35 -420q10 -135 18 -227q4 6 26 33.5t53.5 70t66.5 94.5q41 61 127 183.5t155 225t123 191.5q33 51 33 72q0 11 -11.5 18.5t-44.5 16.5l-71 18 q-14 12 -10 37.5t24 32.5q200 -6 277 -6q118 0 204 6q13 -11 13 -31q0 -28 -19 -39l-59 -12q-55 -11 -83.5 -23.5t-51.5 -38.5q-100 -109 -269 -352l-247 -352q-77 -110 -146 -212t-127 -190.5t-82 -123.5q-27 -17 -71 -17q-33 0 -60 17q-4 26 -8.5 135t-11.5 198l-60 736 q-11 135 -29 178.5t-73 50.5l-45 6q-10 10 -10 28q0 5 1 10z" />
<glyph unicode="W" horiz-adv-x="1978" d="M286 1327q5 23 21 31q144 -6 254 -6q141 0 232 6q14 -6 13.5 -33.5t-15.5 -36.5l-37 -6q-57 -8 -64 -31q-1 -4 -1 -13q0 -35 16 -142l53 -357q51 -327 71 -432q21 31 127 173t134 184l-74 499q-10 74 -25.5 94.5t-62.5 26.5l-29 4q-13 12 -8 38t24 32q135 -6 256 -6 q119 0 201 6q18 -5 18 -33.5t-18 -36.5l-37 -8q-67 -7 -73 -29q-6 -28 0 -63l20 -141l27 -162l125 174q118 168 118 184q0 10 -8.5 16.5t-30.5 12.5l-55 16q-13 13 -8.5 39.5t25.5 30.5q120 -6 217 -6q114 0 188 6q17 -9 15 -34.5t-15 -37.5l-61 -12q-54 -11 -85 -33.5 t-112 -112.5q-60 -68 -160 -195t-133 -179q32 -229 70 -449q247 345 534 760q99 146 105 172q6 22 -33 35l-51 16q-15 14 -10 38t24 32q114 -6 221 -6t178 6q12 -7 12 -24q0 -4 -1 -8q-3 -24 -17 -38l-63 -14q-68 -16 -96 -47q-68 -72 -177 -223q-168 -228 -385 -534 t-333 -486q-27 -17 -72 -17q-33 0 -53 17q-5 63 -29.5 250.5t-42.5 289.5q-257 -351 -379 -551q-26 -16 -72 -16q-25 0 -51 16q-10 112 -57 424q-68 453 -113 736q-11 65 -20 91t-23.5 36t-50.5 18l-47 10q-12 12 -12 28q0 6 1 11z" />
<glyph unicode="X" horiz-adv-x="1312" d="M-90 66l57 8q52 9 86 26q104 53 199 148q23 23 102 101.5t116 115.5t96 99.5t104 115.5l-17 53q-73 230 -139 412q-15 39 -29 63t-33 36.5t-28 15.5t-35 10l-59 16q-11 19 -6.5 43.5t22.5 28.5q114 -6 301 -6q185 0 256 6q17 -9 17 -35.5t-17 -36.5l-63 -12 q-18 -4 -35.5 -9t-27 -9t-9.5 -5v-8q0 -26 16 -76q30 -96 101 -295q175 164 299 312q35 42 35 61t-43 29l-66 12q-15 15 -10 39.5t24 32.5q123 -6 250 -6q136 0 228 6q15 -6 16 -33v-3q0 -24 -14 -36l-68 -14q-106 -23 -207 -111q-170 -147 -414 -395q80 -272 181 -555 q27 -75 52 -100.5t99 -36.5l53 -8q12 -12 8.5 -39t-18.5 -33q-99 6 -295 6q-175 0 -295 -6q-20 7 -20 36.5t20 35.5l62 8q33 4 52.5 14t19.5 21q0 43 -21 112q-18 56 -54 176.5t-54 173.5q-223 -235 -351 -391q-41 -47 -41 -65q0 -10 25 -21.5t61 -19.5l41 -8q14 -10 10 -38 t-24 -34q-150 6 -289 6q-141 0 -233 -6q-13 11 -13 33q0 29 19 39z" />
<glyph unicode="Y" horiz-adv-x="1216" d="M242 66l82 12q48 6 70 21.5t41.5 55.5t51.5 140l29 90q25 77 28 136q1 12 1 24q0 47 -10 96q-9 58 -84 465q-17 98 -36.5 132.5t-76.5 41.5l-45 6q-13 13 -8.5 39.5t22.5 32.5q163 -6 275 -6q127 0 268 6q18 -7 17 -35.5t-15 -36.5l-76 -14q-65 -13 -65 -45 q0 -31 12 -117q33 -239 80 -444l287 356q153 189 153 213t-43 33l-74 18q-15 10 -11.5 37.5t22.5 34.5q173 -6 256 -6q119 0 196 6q16 -6 16 -31v-3q-1 -29 -18 -38l-51 -8q-55 -9 -89 -31.5t-104 -95.5q-149 -158 -385 -446q-68 -81 -95 -131t-52 -130l-47 -149 q-17 -54 -25 -85.5t-10 -58.5t8 -40.5t28 -22t50 -12.5l76 -10q9 -9 5 -36t-17 -36q-193 6 -332 6q-125 0 -309 -6q-14 8 -14 34q0 32 18 38z" />
<glyph unicode="Z" horiz-adv-x="1316" d="M-25 37q35 28 123.5 113.5t149.5 150.5l821 885q33 38 33 57q0 14 -51 14h-250q-65 0 -109.5 -9t-87.5 -38q-85 -59 -174 -186q-20 -11 -47.5 -3t-30.5 28q137 300 158 360q7 7 26 7h3q17 0 28 -5q0 -36 27.5 -47.5t130.5 -11.5h621q156 0 206 6q12 -5 14 -20q0 -3 1 -6 q0 -12 -8 -21q-41 -28 -180 -163.5t-244 -250.5l-330 -356q-30 -33 -92.5 -100t-102.5 -111t-85 -94t-68 -79t-23 -36q0 -17 40 -22t147 -5h174q60 0 126.5 10t100.5 29q113 63 219 219q12 13 43 8.5t35 -22.5q-32 -93 -84 -200.5t-86 -143.5q-172 4 -227 4q-68 2 -205 2 h-531q-155 0 -190 -6q-13 3 -20 15q-4 6 -4 14q0 7 3 14z" />
<glyph unicode="[" horiz-adv-x="696" d="M90 -311l510 1720q45 2 158 2q161 0 219 -8q7 -11 4 -32.5t-12 -27.5l-148 -22q-39 -6 -57 -21q-44 -44 -123 -311l-260 -880q-82 -277 -70 -312q5 -14 47 -20l123 -23q7 -12 5 -31t-11 -28q-66 -8 -227 -8q-113 0 -158 2z" />
<glyph unicode="\" horiz-adv-x="819" d="M219 1384h187l391 -1417h-187z" />
<glyph unicode="]" horiz-adv-x="696" d="M-121 -273q3 21 12 27l148 23q40 6 57 20q44 44 123 312l260 880q82 277 70 311q-5 15 -47 21l-123 22q-7 12 -5 31.5t11 28.5q66 8 227 8q113 0 158 -2l-510 -1720q-45 -2 -158 -2q-161 0 -219 8q-7 11 -4 32z" />
<glyph unicode="^" d="M205 500l342 782h139l340 -782h-182l-228 538l-227 -538h-184z" />
<glyph unicode="_" horiz-adv-x="1024" d="M0 -154h1024v-102h-1024v102z" />
<glyph unicode="`" horiz-adv-x="778" d="M406 1288q0 30 61 70q46 31 82 31q34 0 53 -60l109 -360q-1 -18 -17 -27t-37 -6l-221 276q-33 44 -30 76z" />
<glyph unicode="a" horiz-adv-x="1034" d="M39 98q0 98 87.5 262t219.5 283q196 176 365 176q16 0 42.5 -13t47.5 -34l47 96q22 15 55 15q35 0 76 -13q26 -7 47 -22.5t29 -30.5q-158 -391 -246 -647q-13 -43 4 -43q23 0 85.5 40t107.5 87q16 0 27.5 -12t10.5 -33q-70 -98 -187.5 -169t-221.5 -71q-37 0 -58.5 26 t-21.5 54q0 23 23 86l61 158h-8q-99 -131 -230 -226.5t-237 -95.5q-48 0 -86.5 38.5t-38.5 88.5zM326 158q3 -33 28 -33q31 0 98.5 66t120.5 137q51 68 104.5 166.5t74.5 156.5q-33 78 -86 78q-54 0 -138 -106q-80 -101 -141 -232.5t-61 -214.5v-18z" />
<glyph unicode="b" horiz-adv-x="1048" d="M117 176q0 99 78 313l264 723q11 32 11 52q0 8 -1 12q-5 20 -33 39l-47 31q-11 30 10 49q47 20 172 43t205 26q21 -3 21 -20q-16 -43 -50 -128t-55 -138l-233 -607h4q84 114 188 195.5t201 81.5q47 0 84 -14.5t58.5 -36.5t36 -50.5t19.5 -54.5t5 -51q0 -84 -36 -190 t-126 -209q-107 -125 -247 -198t-296 -73q-109 0 -171 55t-62 150zM350 147q0 -39 16.5 -62.5t36.5 -23.5q64 0 164 121q103 125 169.5 262t68.5 205q0 36 -17 56t-40 20q-44 0 -118.5 -62t-146.5 -171q-67 -101 -100 -193t-33 -152z" />
<glyph unicode="c" horiz-adv-x="776" d="M82 209q0 100 50 225t134 219q89 99 184.5 147t184.5 48q92 0 150.5 -42t58.5 -116q0 -57 -41 -93t-98 -36q-37 0 -58.5 20.5t-23.5 55.5q0 2 -0.5 14t-1 17t-1.5 17t-2 18.5t-3.5 16.5t-5 15.5t-6.5 11.5t-9.5 8.5t-11.5 2.5q-57 0 -127 -129q-101 -191 -101 -373 q0 -135 86 -135q90 0 213 131q20 0 33 -13t10 -32q-58 -91 -171 -163.5t-236 -72.5q-99 0 -153 64t-54 174z" />
<glyph unicode="d" horiz-adv-x="1081" d="M68 166q3 128 73 269t187 243q193 170 393 170q75 0 110 -51l134 399q16 48 16 72v7q-3 23 -31 38l-57 33q-11 30 10 49q46 20 171.5 43t199.5 26q20 -3 20 -20q-32 -84 -94 -266l-297 -891q-30 -86 -35 -131q0 -10 5 -17.5t14 -7.5q19 0 80.5 41t105.5 88q34 -3 34 -36 q0 -5 -1 -11q-15 -23 -40.5 -51.5t-67 -63t-87 -62t-104.5 -46.5t-117 -19q-40 0 -59 25t-19 61q0 27 41 148l47 135h-4q-30 -45 -54 -78.5t-62.5 -80.5t-76.5 -80.5t-84 -65t-98 -48t-106 -16.5q-68 1 -109 55q-38 51 -38 128v12zM301 133q0 -45 31 -45q29 0 117.5 72 t154.5 157q120 154 168 301q13 41 13 73q0 14 -2 26q-8 41 -35 41q-28 0 -76 -35q-96 -71 -197 -217q-71 -101 -122.5 -215.5t-51.5 -157.5z" />
<glyph unicode="e" horiz-adv-x="821" d="M82 207q0 138 77 284t199 238q156 119 322 119q88 0 143.5 -47.5t55.5 -116.5q0 -44 -21 -84t-52 -70.5t-79 -59t-91 -48t-100 -39t-92.5 -29.5t-81.5 -22q-10 -31 -10 -99q0 -46 22.5 -79t65.5 -33q57 0 127.5 37t139.5 106q18 0 30 -13.5t11 -33.5 q-74 -116 -191.5 -181t-255.5 -65q-106 0 -162.5 66.5t-56.5 169.5zM379 422q111 31 194 117q30 31 51 82t23 90q0 19 -10.5 33t-28.5 14q-41 0 -88 -53q-51 -55 -88 -135t-53 -148z" />
<glyph unicode="f" horiz-adv-x="612" d="M-346 -393q0 49 41 90t84 41q38 0 57 -33q37 -67 71 -106t52 -39t34.5 33.5t43.5 130.5q232 854 268 989h-192q-5 15 -5 31.5t5 33.5q10 33 30 41h193q67 216 141 348q75 134 187 215.5t256 81.5q110 0 163.5 -46.5t53.5 -121.5q-1 -67 -46.5 -109t-84.5 -42 q-43 0 -60 59q-24 89 -53 129.5t-53 40.5q-46 0 -113 -151q-61 -132 -135 -404h233q12 -21 2.5 -58t-34.5 -48h-232q-29 -96 -100.5 -349.5t-114.5 -388.5q-79 -249 -149 -346q-54 -76 -143.5 -128t-192.5 -52q-85 0 -146 40.5t-61 117.5z" />
<glyph unicode="g" horiz-adv-x="851" d="M-100 -346q0 33 14 63.5t33.5 53.5t52 45t59 36t66 29.5t61 22.5t54.5 18q-26 19 -40 31t-27 33.5t-13 46.5q0 34 42.5 81.5t86.5 80.5v4q-77 17 -128 75q-50 57 -50 156q0 49 16 101.5t53.5 109t90 102.5t134 75.5t177.5 29.5q42 0 100 -21q15 -5 41.5 -18.5t36.5 -13.5 q34 0 84 16q69 25 100 25q30 0 50 -21t20 -63q0 -46 -22 -65t-46 -19q-22 0 -57 12q-36 12 -51 12q-7 0 -11.5 -6t-3.5 -16q6 -48 6 -58q0 -172 -126.5 -292.5t-319.5 -129.5q-31 -26 -31 -49q0 -34 144 -106q39 -19 54 -27t55.5 -30.5t60 -37.5t50.5 -42t46 -50.5t27 -55.5 t12 -66q0 -62 -38 -112t-95 -80t-129.5 -50t-136 -27.5t-119.5 -7.5q-61 0 -121.5 9.5t-122.5 31t-100.5 64t-38.5 100.5zM154 -303q0 -68 68.5 -108t170.5 -40q87 0 142 29t55 76q0 70 -101 137q-124 78 -159 78q-17 0 -52 -13.5t-59 -33.5q-65 -54 -65 -125zM332 340 q0 -59 55 -59q33 0 71.5 40.5t76.5 110.5q32 57 61 138t29 122q0 31 -15 48.5t-37 17.5q-51 0 -114 -84q-47 -64 -87 -165.5t-40 -168.5z" />
<glyph unicode="h" horiz-adv-x="1044" d="M45 53l395 1143q17 50 17 74q0 27 -29 43l-57 33q-11 30 10 49q49 20 173.5 43t201.5 26q16 -2 22 -20q-42 -109 -98 -266l-227 -639h4q79 108 182 188q147 121 266 121q71 0 113.5 -49t42.5 -133q0 -116 -61 -261t-142 -255q-57 -77 -140 -128t-171 -51 q-46 0 -78.5 22.5t-32.5 61.5q0 38 25.5 65t48.5 27q22 0 41 -22q37 -43 49 -43q15 0 39 61q58 134 110 292t52 227q0 55 -37 55q-34 0 -98 -55.5t-140 -157.5q-33 -44 -70 -105t-70 -124.5t-57.5 -113t-47.5 -99t-25 -54.5q-18 -37 -102 -37q-52 0 -88 19q-26 13 -25 39 q0 11 4 24z" />
<glyph unicode="i" horiz-adv-x="632" d="M104 53q0 24 25 88l213 510q11 29 -4 29q-23 0 -86.5 -43.5t-95.5 -73.5q-18 3 -28.5 19t-4.5 30q81 98 204.5 167t207.5 69q34 0 64 -28.5t30 -61.5q0 -20 -27 -90l-213 -502q-14 -31 8 -31q21 0 86.5 45t106.5 84q19 0 31 -14.5t8 -34.5q-69 -91 -191.5 -167.5 t-238.5 -76.5q-36 0 -65.5 30t-29.5 52zM461 1126q0 69 46.5 119.5t115.5 50.5q53 0 83.5 -31t30.5 -89q0 -69 -43 -117.5t-112 -48.5q-56 0 -88.5 32.5t-32.5 83.5z" />
<glyph unicode="j" horiz-adv-x="614" d="M-332 -403q0 50 35 85t80 35q33 0 57 -34q27 -42 51.5 -74t40 -46t21.5 -14q28 0 61 82q42 100 215 660q101 319 103 350q0 31 -19 31q-27 0 -88 -48t-96 -83q-19 1 -30 19.5t-5 35.5q32 37 73.5 75t98.5 80.5t122.5 69.5t123.5 27q39 0 65.5 -28.5t26.5 -65.5 q0 -83 -90 -365q-87 -271 -164 -485q-54 -145 -113 -238.5t-139 -148.5q-103 -68 -227 -68q-77 0 -140 41t-63 107zM420 1126q0 69 46.5 119.5t115.5 50.5q53 0 83.5 -31t30.5 -89q0 -69 -43 -117.5t-112 -48.5q-56 0 -88.5 32.5t-32.5 83.5z" />
<glyph unicode="k" horiz-adv-x="1009" d="M51 53l387 1143q16 47 16 71v8q-4 23 -32 38l-57 33q-11 30 10 49q49 20 175 43t202 26q20 -3 20 -20q-42 -109 -98 -266l-203 -578h6q84 105 174 166q63 44 120.5 63t129.5 19q84 0 129 -44.5t45 -107.5q0 -117 -114 -211q-84 -71 -252 -114q-20 -6 -13 -35q2 -7 8 -36 t9 -41t10 -37t13 -37.5t14.5 -27.5t18.5 -21.5t22 -6.5q45 0 147 107q13 4 27.5 -7t17.5 -28q-43 -86 -134.5 -158t-197.5 -72q-84 0 -125 80q-31 60 -59 191q-13 57 -41 57q-32 0 -46 -15t-30 -59l-84 -217q-14 -37 -96 -37q-31 0 -59.5 6t-49.5 26q-14 13 -14 31q0 9 4 19 zM410 391q0 -14 32 -14q92 0 217 84q146 100 146 176q0 31 -18.5 48t-47.5 17q-108 0 -286 -229q-17 -21 -30 -47t-13 -35z" />
<glyph unicode="l" horiz-adv-x="563" d="M66 59q0 43 28 123l350 1014q17 49 17 73q-1 3 -1 5q-2 24 -30 39l-57 33q-11 30 10 49q49 20 174.5 43t202.5 26q20 -3 20 -20q-86 -239 -96 -268l-336 -973q-8 -23 -12 -39t-5 -29t3.5 -19.5t15.5 -6.5q30 0 95.5 60.5t117.5 121.5q18 2 30 -11.5t9 -33.5 q-141 -275 -405 -275q-70 0 -100.5 26t-30.5 62z" />
<glyph unicode="m" horiz-adv-x="1585" d="M84 614q47 105 146.5 169.5t240.5 64.5q36 0 57.5 -12t27.5 -32t4.5 -41t-9.5 -44l-92 -242h4q257 371 457 371q61 0 86.5 -35t25.5 -84q0 -15 -5.5 -36.5t-20.5 -61.5t-25.5 -65.5t-36.5 -88.5h6q107 169 228.5 270t228.5 101q65 0 100 -39.5t35 -85.5q0 -73 -41 -176 q-34 -89 -151 -367q-19 -45 8 -45q25 0 77.5 42.5t104.5 96.5q18 3 30 -7.5t11 -30.5q-23 -41 -63.5 -85t-96 -85.5t-127.5 -68t-145 -26.5q-34 0 -61 25.5t-27 54.5q0 35 31 111q130 305 174 428q26 71 26 96q0 29 -28 29q-19 0 -59.5 -33.5t-90.5 -97.5 q-17 -21 -35.5 -47.5t-33 -48t-34.5 -57t-31 -55t-33 -62t-30 -58t-31 -64t-27.5 -58t-29 -62t-26.5 -56.5q-11 -26 -30.5 -35.5t-53.5 -9.5q-71 -1 -111 17q-32 14 -32 37q0 6 2 12q14 43 213 553q28 69 28 96q0 12 -8 20.5t-20 8.5q-23 0 -67.5 -35t-100.5 -105 q-119 -150 -297 -567q-9 -21 -26.5 -29t-53.5 -8q-70 -1 -110 17q-32 14 -32 37q0 6 2 12q4 12 47 133t94 264t62 174q15 43 15 61q0 4 -1 7q-4 16 -28 16q-14 0 -28.5 -4t-29 -13t-25 -15.5t-25.5 -21.5l-21 -21t-20.5 -23t-16.5 -19q-17 -1 -30 10.5t-15 28.5z" />
<glyph unicode="n" horiz-adv-x="1114" d="M92 604q44 88 159 166t232 78q33 0 52.5 -13t23.5 -34t2 -41.5t-10 -40.5l-96 -252h8q38 53 64 87t67.5 84.5t78 82.5t81 64t92.5 47.5t96 15.5q63 0 96 -36.5t33 -82.5q0 -79 -41 -182q-34 -89 -151 -367q-19 -45 8 -45q22 0 81 46t101 93q18 3 30 -7.5t11 -30.5 q-23 -41 -63.5 -85t-95.5 -85.5t-127 -68t-144 -26.5q-34 0 -61 25.5t-27 54.5q0 35 31 111q130 305 174 428q26 71 26 96q0 29 -26 29q-53 0 -156 -131q-53 -68 -115 -176.5t-102 -189.5t-100 -210q-18 -37 -99 -37q-51 0 -87 19q-27 14 -26 42q0 10 3 21q4 13 46 131 t90 254.5t60 169.5q11 32 11 50q0 24 -19 24q-29 0 -80 -35t-94 -76q-14 0 -24.5 10t-12.5 23z" />
<glyph unicode="o" horiz-adv-x="958" d="M100 256q2 123 58.5 249.5t156.5 213.5q151 129 320 129q79 0 139 -25.5t94 -69t51 -95t17 -109.5q0 -112 -51.5 -230.5t-139.5 -203.5q-150 -144 -348 -144q-75 0 -134 24t-94 65t-53 91q-17 47 -16 99v6zM336 145q0 -38 17 -61t46 -23q37 0 73 34t79 104 q53 89 104.5 228.5t51.5 244.5q0 86 -58 86q-47 0 -110 -78q-68 -85 -135.5 -243.5t-67.5 -291.5z" />
<glyph unicode="p" horiz-adv-x="1040" d="M-226 -508q-1 3 -1 7q0 20 12 30l65 10q63 10 90.5 44.5t63.5 140.5l324 950q-35 -7 -100.5 -35t-112.5 -53q-19 3 -27 23.5t2 35.5q27 31 119.5 78t152.5 63l60 154q33 29 98 29q52 0 90.5 -11.5t46.5 -27.5l-41 -117q37 6 58 6q93 0 161.5 -23.5t107 -66.5t56 -95 t17.5 -116q0 -85 -43.5 -186t-110.5 -170q-187 -191 -422 -191q-36 0 -84 21q-18 -3 -28 -35l-92 -272q-10 -29 -13 -48.5t0.5 -37.5t19.5 -28t44 -13l86 -9q19 -7 15.5 -35t-26.5 -34h-145q-143 0 -422 -23q-19 9 -21 35zM403 178q-7 -21 -7 -38q0 -28 18 -46 q29 -33 63 -33q21 0 54 20.5t67 61.5q68 79 112 190.5t44 211.5q0 85 -39 126.5t-97 41.5q-8 0 -32 -4z" />
<glyph unicode="q" horiz-adv-x="1040" d="M70 162q0 84 43 198.5t137 229.5q110 132 239.5 195t247.5 63q89 0 135 -100q56 84 111 149q15 6 33 6q15 0 32 -4q37 -9 48 -35q-1 -4 -46 -145t-79 -254l-238 -780q-16 -43 -16 -71q0 -8 1 -14q6 -31 24 -41.5t59 -13.5l51 -4q12 -14 10.5 -35.5t-12.5 -29.5 q-269 -6 -582 -60q-17 12 -16.5 35.5t14.5 32.5l68 16q72 18 98 49t55 123l201 633h-4l-39 -55.5t-46 -60t-58 -65.5t-65.5 -57t-77.5 -51t-85 -31.5t-98 -13.5q-49 0 -84 34t-48 75t-13 82zM319 135q0 -21 10 -34t25 -13q30 0 104 58.5t148 156.5q158 207 158 369 q0 40 -15.5 66t-35.5 26q-18 0 -44 -15t-77.5 -71.5t-106.5 -147.5q-83 -138 -124.5 -246t-41.5 -149z" />
<glyph unicode="r" horiz-adv-x="813" d="M96 621q39 77 130 152t192 75q108 0 107 -97q0 -41 -19 -100l-74 -217h10q110 196 170 273q103 141 201 141q46 0 73 -31t27 -92q0 -82 -45 -141.5t-90 -59.5q-15 0 -25 6.5t-16.5 22t-9.5 28t-8 37.5q-8 48 -33 48q-40 0 -141 -179q-26 -48 -50 -95.5t-48 -102 t-38 -88.5t-41 -100.5t-38 -92.5q-15 -37 -99 -37q-51 0 -88 19q-27 14 -27 42q0 10 3 21q33 105 101.5 308.5t90.5 271.5q8 27 8 43q0 22 -16 22q-26 0 -76.5 -37.5t-93.5 -87.5q-18 1 -29 15q-9 11 -9 25q0 4 1 8z" />
<glyph unicode="s" horiz-adv-x="663" d="M18 129q0 49 30.5 84t70.5 35q7 0 12.5 -1.5t13 -7.5t10.5 -9l13.5 -13.5l13.5 -13.5q58 -61 94 -84t68 -23q28 0 49 18.5t21 41.5q0 41 -60 104l-67 72q-101 106 -101 207q0 62 32.5 121t82.5 102q104 86 219 86q84 0 142.5 -47.5t58.5 -116.5q0 -53 -31.5 -79.5 t-62.5 -26.5q-23 0 -47 28q-59 68 -94.5 92.5t-67.5 24.5q-21 0 -37 -16t-16 -37q0 -39 53 -92l78 -80q104 -107 104 -209q0 -129 -123 -228q-107 -90 -256 -90q-77 0 -140 43.5t-63 114.5z" />
<glyph unicode="t" horiz-adv-x="657" d="M111 59q0 44 22 111l186 543h-151q-15 12 -8.5 40.5t24.5 37.5l178 36l148 197q24 16 70 16q57 0 75 -34l-55 -187h188q17 -17 17 -41q0 -8 -2 -16q-7 -36 -25 -49h-207l-190 -531q-16 -47 12 -47q27 0 90.5 46.5t126.5 111.5q41 -3 41 -42v-5q-62 -91 -196.5 -183 t-249.5 -92q-40 0 -67 27t-27 61z" />
<glyph unicode="u" horiz-adv-x="1112" d="M106 604q66 88 190 166t232 78q36 0 64.5 -28t28.5 -58q0 -31 -11 -57l-202 -498q-8 -20 -8 -33q0 -22 24 -22q28 0 78 43q60 51 120.5 129t116 175t91.5 167.5t81 164.5q39 17 76 17q86 0 143 -45q-23 -59 -74 -188t-89 -227.5t-70 -188.5q-8 -23 -8 -37q0 -21 18 -21 q23 0 84 45t103 88q36 -6 36 -47q-48 -85 -179 -170.5t-251 -85.5q-41 1 -64 31q-13 17 -13 38q0 17 8 36l114 291h-4q-45 -63 -102 -127.5t-124.5 -127t-140 -102t-130.5 -39.5q-51 0 -82 31.5t-31 75.5q0 38 31 121l170 428q8 20 6 36.5t-14 16.5t-28.5 -8t-37.5 -23.5 t-39 -29.5t-42 -34.5t-36 -29.5q-37 13 -35 49z" />
<glyph unicode="v" horiz-adv-x="942" d="M96 594q45 90 162.5 172t239.5 82q46 0 72 -32.5t26 -70.5q0 -39 -33 -129l-112 -303q-33 -94 -33 -131q0 -21 11.5 -39t35.5 -18q31 0 84.5 39t105.5 112q41 59 72 152t31 145q0 105 -19 150q3 60 36.5 92.5t88.5 32.5q68 -7 92.5 -48.5t24.5 -105.5q0 -117 -106 -289.5 t-250 -287.5q-109 -88 -185 -117t-149 -29q-60 0 -95.5 48.5t-35.5 93.5q0 79 30 163l121 332q13 34 13 51q0 21 -17 21q-46 0 -170 -119q-15 0 -27 10.5t-14 22.5z" />
<glyph unicode="w" horiz-adv-x="1413" d="M96 594q45 90 162 172t238 82q46 0 72 -32.5t26 -70.5q0 -39 -33 -129l-112 -303q-47 -124 -50 -159q0 -12 6.5 -20.5t16.5 -8.5q42 0 113 74q109 115 161.5 222.5t83.5 248.5q13 58 33.5 95.5t46.5 54.5t48.5 22.5t52.5 5.5q42 0 74 -24t32 -66q0 -57 -61 -170 q-46 -88 -81.5 -191.5t-35.5 -179.5q0 -84 55 -84q38 0 92 48.5t94 121.5q40 74 63.5 165t23.5 155q0 63 -11 108q4 55 39.5 86t89.5 31q119 -12 119 -154q-2 -107 -63 -231.5t-183 -253.5q-107 -114 -228 -176t-194 -62q-48 0 -87.5 37t-39.5 90q0 32 37 152h-6 q-4 -4 -46 -50t-64 -67q-180 -162 -318 -162q-59 0 -91 41t-32 80q0 60 47 184l125 332q12 32 12 50q0 22 -18 22q-46 0 -170 -119q-16 0 -26.5 10t-12.5 23z" />
<glyph unicode="x" horiz-adv-x="927" d="M-25 74q0 54 41.5 116t79.5 62q14 0 23.5 -14.5t21.5 -47.5q15 -36 43 -36q5 0 20.5 11.5t49.5 44.5t74 81l65 78l-61 194q-24 78 -43 78q-38 0 -107 -104q-17 -8 -34.5 -0.5t-20.5 24.5q8 28 24 62.5t43 75t58 73t73 54.5t85 22q78 0 120 -133l48 -154l73 88 q89 106 149.5 152.5t123.5 46.5q45 0 71.5 -33t26.5 -76q0 -70 -30 -122t-70 -52q-31 0 -45 45q-15 52 -50 52q-44 0 -153 -125l-68 -76l51 -162q20 -61 34 -94t22.5 -42t17.5 -9q16 0 48 38.5t63 88.5q12 13 33 10t30 -21q-36 -121 -109.5 -210t-164.5 -89 q-62 0 -98.5 41.5t-61.5 114.5l-45 137l-117 -141q-68 -82 -124.5 -117t-114.5 -35q-41 0 -68 28.5t-27 74.5z" />
<glyph unicode="y" horiz-adv-x="870" d="M-176 -409q0 55 35 92q36 38 88 38q49 0 90 -59q28 -39 48.5 -54.5t45.5 -15.5q34 0 82 54q63 74 86 192q26 134 26 332q0 44 -1 90q-5 200 -23 303t-57 103q-28 0 -65 -53t-64 -113q-13 -12 -37.5 -6.5t-30.5 22.5q14 41 30.5 78.5t45.5 86.5t61 83.5t78.5 59t97.5 24.5 q85 0 132 -85t51 -286v-58q0 -193 -17 -362h6q135 262 187 580q18 104 20 125q6 47 23 66.5t47 19.5q52 0 90 -23t39 -69q0 -21 -22 -94.5t-73 -197t-114 -237.5q-241 -430 -389 -585q-182 -193 -358 -193q-61 0 -109 37q-49 39 -49 105z" />
<glyph unicode="z" horiz-adv-x="905" d="M-2 51q0 30 24.5 62.5t79.5 79.5q102 86 271 214.5t221 170.5q27 23 -4 34q-67 24 -149.5 38t-116.5 14q-21 0 -35.5 -12t-14.5 -27q0 -18 24 -46.5t24 -43.5q0 -25 -22.5 -45t-55.5 -21h-3q-43 1 -73 27q-31 28 -31 69q0 88 111 187q97 82 227 82q64 0 174 -39 q80 -27 117 -27q33 0 56.5 16t51.5 54h7q33 0 57 -27q19 -21 19 -49q0 -12 -3 -25q-256 -196 -602 -483v-8q46 0 85.5 -12.5t103.5 -47.5q135 -73 176 -73q26 0 42.5 11t16.5 32q0 22 -24 71q-25 51 -25 78q0 23 18 40t46 17q55 0 93 -46q36 -43 36 -90q0 -106 -107 -189 q-44 -35 -103.5 -57.5t-117.5 -22.5q-95 0 -217 66q-96 49 -148 49q-71 0 -108 -99q-8 -1 -16 -1q-49 0 -75 22q-30 25 -30 57z" />
<glyph unicode="{" horiz-adv-x="696" d="M189 -163q-1 39 10 91q23 89 84 241.5t73 192.5q7 25 10 40.5t0.5 39t-16 38t-44.5 27t-79 15.5q-6 12 -3 29.5t12 23.5q51 2 90.5 13.5t63 27.5t41 41t25.5 45t15 48q16 56 42.5 198t49.5 219q20 69 53 117.5t69.5 75.5t88 41.5t97 17.5t108.5 2q13 -8 11.5 -29.5 t-15.5 -29.5q-53 -7 -93 -21.5t-64.5 -31.5t-43 -43.5t-27 -47.5t-18.5 -53q-19 -59 -39 -197t-39 -204q-26 -87 -75.5 -139t-133.5 -72l-2 -8q144 -40 90 -213q-20 -65 -83 -206t-78 -196q-45 -174 112 -200q8 -10 5 -29t-13 -25q-43 -1 -80.5 3t-75 14.5t-63 29.5t-45 47 t-20.5 67z" />
<glyph unicode="|" horiz-adv-x="507" d="M225 -512v2048h181v-2048h-181z" />
<glyph unicode="}" horiz-adv-x="696" d="M-132.5 -294q1.5 22 15.5 30q65 8 110.5 26.5t71.5 48.5t39 55.5t25 65.5q19 59 39 197.5t39 204.5q26 87 75.5 139t133.5 72l2 8q-144 40 -90 213q20 65 83 205.5t78 195.5q45 175 -112 201q-8 10 -5 28.5t13 24.5q43 1 80.5 -3t75 -14.5t63 -29.5t45 -47t20.5 -67 t-10 -91q-23 -89 -84 -241.5t-73 -192.5q-7 -25 -10 -40.5t-0.5 -39t16 -38t44.5 -27t79 -15.5q6 -12 3.5 -29.5t-11.5 -23.5q-63 -2 -108 -17.5t-70 -43.5t-37 -53t-21 -60q-16 -56 -42.5 -198.5t-49.5 -219.5q-20 -69 -53 -117.5t-69.5 -75.5t-88 -41.5t-97 -17.5 t-108.5 -2q-13 8 -11.5 30z" />
<glyph unicode="~" d="M135 227q5 39 36.5 108.5t66.5 113.5q33 38 73.5 49.5t110.5 11.5h260q70 0 106.5 34.5t67.5 117.5q24 16 61 6.5t54 -37.5q-15 -57 -47 -117.5t-66 -97.5q-28 -32 -63 -43t-93 -11h-282q-62 0 -101.5 -39.5t-72.5 -121.5q-23 -15 -62.5 -7.5t-48.5 33.5z" />
<glyph unicode="&#xa1;" horiz-adv-x="505" d="M-92 -461q3 16 12 43t19 51.5t28.5 70.5t30.5 75l229 579q14 10 39.5 10t42.5 -10l-73 -575q-24 -197 -37 -244t-54.5 -65.5t-113.5 -18.5q-68 0 -99 21t-24 63zM184 623q0 77 50 130.5t124 53.5q62 0 102 -38.5t40 -104.5q0 -75 -50.5 -134t-127.5 -59q-62 0 -100 41 t-38 111z" />
<glyph unicode="&#xa2;" d="M229 573q0 95 32.5 177.5t88.5 142.5t131 103t161 64t177 21h19l53 160q15 15 48 15t50 -15l-55 -168q99 -13 174 -47q20 -20 20 -70q0 -43 -27 -88t-57 -45q-13 0 -24 11q-5 5 -31 38.5t-52 61t-40 31.5l-201 -603q14 -4 43 -4q131 0 246 95q18 0 29.5 -14.5t9.5 -32.5 q-26 -34 -58.5 -63.5t-78.5 -58.5t-107.5 -46.5t-130.5 -18.5l-63 -194q-15 -17 -50 -16t-49 16l66 198q-86 12 -150.5 47.5t-101 85.5t-54.5 104.5t-18 112.5zM496 608q0 -79 29.5 -136.5t82.5 -80.5l199 594q-75 -4 -136 -40t-98.5 -90.5t-57 -118t-19.5 -128.5z" />
<glyph unicode="&#xa3;" d="M-63 8q10 51 126 133q202 142 242 439q5 9 2.5 14t-3 5.5t-10 1.5t-18.5 3h-165q-10 11 -1.5 42t31.5 50h156q21 0 26 3.5t7 15.5q6 30 18 76q55 241 193.5 380.5t339.5 139.5q113 0 170 -51q27 -21 18 -68q-10 -29 -45 -62.5t-51 -33.5q-21 0 -43 20q-43 51 -76 67.5 t-68 16.5q-93 0 -141 -262q-25 -134 -35 -211q-3 -20 3 -25.5t32 -5.5h250q10 -15 0 -44.5t-31 -47.5h-239q-28 0 -37 -5t-13 -24q-29 -126 -97 -201t-179 -132l2 -4q34 4 133 -13q50 -7 178 -71q102 -52 168 -52q41 0 49 33t-6 109q-6 40 18 64t56 24q40 0 65 -36.5 t7 -119.5q-8 -35 -37 -79t-70 -84t-96 -67.5t-107 -27.5q-53 0 -107 21t-126 71q-67 45 -118 69.5t-101 24.5q-27 0 -47 -14.5t-27 -28.5t-14 -34q-10 -21 -60 -38.5t-94 -17.5q-21 0 -27 8.5t-1 28.5z" />
<glyph unicode="&#xa4;" d="M174 299l94 86q-38 44 -61 112.5t-23 143.5t23 143.5t61 112.5l-94 86q9 50 48.5 84t84.5 39l76 -100q99 73 244 73q144 0 243 -73l76 100q45 -5 84.5 -39t48.5 -84l-94 -86q38 -44 61 -112.5t23 -143.5t-23 -143.5t-61 -112.5l94 -86q-9 -50 -48.5 -84t-84.5 -39 l-76 100q-99 -73 -243 -73q-145 0 -244 73l-76 -100q-45 5 -84.5 39t-48.5 84zM373 641q0 -123 75 -202t179 -79t179 79.5t75 201.5t-75 201.5t-179 79.5q-105 0 -179.5 -79.5t-74.5 -201.5z" />
<glyph unicode="&#xa5;" d="M109 410q-9 15 0.5 47t29.5 45h295l49 155h-295q-11 15 -1 47.5t30 45.5h266l-86 346q-6 27 -12 44t-16.5 35.5t-28 29t-41.5 14.5l-43 6q-10 10 -3 35t30 32q147 -6 284 -6q141 0 185 6q17 -4 17 -29.5t-15 -37.5l-58 -15q-50 -13 -55 -34q-4 -18 14 -115 q21 -121 64 -273q55 62 190 228q114 144 121 160q3 12 -8 22t-37 16l-43 11q-11 12 -5.5 35t15.5 32q159 -6 215 -6q79 0 156 6q18 -7 15.5 -32t-17.5 -35l-47 -13q-53 -14 -88.5 -41t-112.5 -114l-278 -307h266q12 -14 1.5 -46t-30.5 -47h-297l-49 -155h297 q12 -14 1.5 -45.5t-30.5 -46.5h-297l-51 -172q-21 -71 -21.5 -108t11.5 -48t41 -14l51 -7q10 -9 2.5 -33.5t-24.5 -33.5q-129 6 -260 6q-122 0 -275 -6q-10 9 -2.5 33.5t21.5 33.5l51 7q56 6 86 38.5t63 131.5l56 172h-297z" />
<glyph unicode="&#xa6;" horiz-adv-x="507" d="M225 -358v716h181v-716h-181zM225 666v716h181v-716h-181z" />
<glyph unicode="&#xa7;" horiz-adv-x="1105" d="M96 -55q0 42 23 72t51 30q23 0 49.5 -22.5t57.5 -57t51 -49.5q66 -47 123 -47q51 0 90 27t39 86q0 43 -14 85.5t-51 99t-60 88t-82 105.5q-58 73 -93.5 166.5t-35.5 184.5q0 100 46.5 202t123.5 184.5t170.5 147.5t193 101t185.5 36q46 0 82.5 -14.5t56.5 -35t32.5 -46 t16.5 -43.5t4 -31q0 -42 -30.5 -75t-63.5 -33q-35 0 -60 49q-34 66 -78 97.5t-85 31.5q-43 0 -78.5 -33t-38.5 -90q-3 -110 156 -291q58 -66 95.5 -128.5t54 -118.5t21.5 -99t3 -94q-4 -106 -73.5 -229t-170.5 -222.5t-227 -166t-234 -66.5q-120 0 -185 60t-65 139zM424 856 q-5 -92 28 -178.5t126 -208.5q101 -134 127 -231q36 -114 -11 -230l4 -2q166 123 166 324q0 193 -137 362q-110 137 -139.5 237.5t4.5 209.5q-63 -26 -114 -112t-54 -171z" />
<glyph unicode="&#xa8;" horiz-adv-x="778" d="M326 1124q8 55 46 90t93 35q53 0 85 -36.5t25 -94.5q-8 -53 -46.5 -87t-92.5 -34q-56 0 -86.5 35t-23.5 92zM705 1124q8 55 46.5 90t94.5 35q52 0 84.5 -37t23.5 -94q-9 -54 -46.5 -87.5t-92.5 -33.5q-56 0 -86.5 35t-23.5 92z" />
<glyph unicode="&#xa9;" horiz-adv-x="1679" d="M254 676q0 144 57 275t153 226t228.5 151t278.5 56t278.5 -56t228.5 -151t153 -226t57 -275t-57 -275.5t-153 -226.5t-228.5 -151t-278.5 -56t-278.5 56t-228.5 151t-153 226.5t-57 275.5zM393 678q0 -168 78.5 -310t211.5 -223.5t288 -81.5q116 0 222.5 48.5 t184.5 130.5t124 196t46 240t-46 239.5t-124 194.5t-184.5 128.5t-222.5 47.5q-156 0 -288.5 -80.5t-211 -221t-78.5 -308.5zM608 674q0 168 115.5 277.5t312.5 109.5q51 0 96.5 -6.5t90.5 -17t51 -11.5q3 -35 18 -211q-7 -10 -26.5 -12t-28.5 6q-20 68 -56 110.5t-69 56 t-68 13.5q-37 0 -72.5 -15.5t-69 -48.5t-54.5 -95.5t-21 -145.5q0 -152 68 -229.5t162 -77.5q121 0 211 170q9 9 26.5 7.5t26.5 -11.5q-5 -50 -19.5 -101t-33.5 -82q-44 -29 -111 -42t-121 -13q-100 0 -178 25t-123.5 63.5t-75.5 90t-40.5 97.5t-10.5 93z" />
<glyph unicode="&#xaa;" horiz-adv-x="831" d="M172 582q0 68 67 182t167 197q150 124 288 124q33 0 70 -32l35 67q17 10 41 10q30 0 63 -10q52 -17 64 -37q-130 -297 -183 -444q-10 -29 7 -29q12 0 58.5 29t80.5 61q13 0 22 -14t6 -29q-53 -69 -143 -117t-178 -48q-31 0 -50.5 17.5t-19.5 37.5q0 15 19 59l39 94h-7 q-67 -81 -164.5 -144.5t-179.5 -63.5q-41 0 -71.5 26.5t-30.5 63.5zM410 627q0 -17 14 -17q20 0 70.5 43.5t85.5 87.5q41 50 82.5 118t52.5 99q-12 30 -25.5 42t-34.5 12q-40 0 -94 -64q-59 -70 -105 -162t-46 -147v-12z" />
<glyph unicode="&#xab;" horiz-adv-x="962" d="M147 389q-28 37 15 74q116 106 373 354q45 0 51 -35l-226 -325q-17 -29 -10 -58l94 -333q-11 -36 -53 -33q-158 237 -244 356zM512 389q-28 38 14 74q116 106 373 354q45 0 51 -35l-225 -325q-17 -29 -10 -58l94 -333q-11 -36 -53 -33q-158 237 -244 356z" />
<glyph unicode="&#xac;" d="M164 512v147h821v-522h-180v375h-641z" />
<glyph unicode="&#xad;" horiz-adv-x="655" d="M98 401q0 45 31 84l489 45q29 -32 29 -86q0 -46 -26 -79l-492 -46q-31 31 -31 82z" />
<glyph unicode="&#xae;" horiz-adv-x="716" d="M358 1100q0 119 86 202.5t207 83.5t207 -83.5t86 -202.5t-86 -203t-207 -84t-207 84t-86 203zM428 1100q0 -98 66 -167t157 -69q92 0 157.5 69t65.5 167q0 99 -65 168t-158 69q-91 0 -157 -69t-66 -168zM509.5 976q-0.5 10 2.5 11l10 2q19 4 23 11.5t4 35.5v129 q0 42 -27 45h-10q-3 6 -2.5 15t6.5 10q102 4 135 4q123 0 123 -76q0 -23 -13.5 -39.5t-31.5 -23.5q-6 -3 0 -17q38 -72 62 -90q19 -11 22 -12q3 0 3 -7.5t-3 -8.5q-12 -2 -35 -2q-57 0 -90 47q-8 12 -35 57q-6 12 -20 12q-10 0 -10 -10v-33q0 -20 1 -27t7 -12.5t20 -7.5 l8 -2q3 -1 3 -11t-3 -11q-12 0 -35 1t-38 1q-14 0 -37.5 -1t-32.5 -1q-6 1 -6.5 11zM623 1122q0 -12 3.5 -14t20.5 -2q22 0 31.5 14.5t9.5 30.5q0 27 -10.5 42t-28.5 15t-22 -3.5t-4 -14.5v-68z" />
<glyph unicode="&#xaf;" horiz-adv-x="778" d="M372.5 1113q7.5 53 30.5 71h457q15 -24 7.5 -74t-31.5 -74h-457q-14 24 -6.5 77z" />
<glyph unicode="&#xb0;" horiz-adv-x="819" d="M315 1020q0 129 87.5 210t213.5 81t214 -81t88 -210q0 -134 -87 -212.5t-215 -78.5t-214.5 78.5t-86.5 212.5zM457 1020q0 -89 45 -145t114 -56q75 0 117.5 55t42.5 146q0 88 -45.5 144.5t-114.5 56.5t-114 -56.5t-45 -144.5z" />
<glyph unicode="&#xb1;" d="M123 0v147h821v-147h-821zM123 547v147h321v305h181v-305h319v-147h-319v-322h-181v322h-321z" />
<glyph unicode="&#xb2;" horiz-adv-x="819" d="M193 682q99 68 241 180q52 41 71 56.5t59 49.5t55 50.5t39.5 44.5t33.5 49t17 47t8 53q0 51 -29.5 85t-85.5 34q-50 0 -96.5 -34t-81.5 -87q-18 -4 -33 6.5t-18 28.5q46 95 137 150t192 55q109 0 185 -60.5t76 -164.5q0 -51 -19 -92.5t-68 -82.5t-83 -63.5t-114 -69.5 q-13 -8 -20 -12l-120 -71q-25 -14 -21.5 -26.5t33.5 -12.5h160q52 0 75.5 10.5t59.5 52.5q10 6 26 2t23 -18q-23 -67 -55 -123t-56 -78q-110 4 -188 4h-242q-109 0 -155 -4q-20 17 -6 41z" />
<glyph unicode="&#xb3;" horiz-adv-x="819" d="M176 678q0 37 25 61.5t63 24.5q18 0 35.5 -10.5t26.5 -21t21.5 -28.5t14.5 -20q26 -37 72 -37q94 0 157.5 77t63.5 181q0 54 -32 91.5t-86 37.5q-70 0 -129 -51q-29 9 -38 34.5t7 47.5q58 14 133 43t115 55q82 49 82 109q0 33 -25 52t-66 19q-88 0 -167 -86 q-19 -3 -31.5 7t-9.5 30q127 156 311 156q78 0 139.5 -40.5t61.5 -117.5q0 -109 -191 -157q-16 -4 -4 -13q5 -5 14 -6q66 -8 116 -59.5t50 -132.5q0 -88 -61 -160t-150 -119q-159 -80 -346 -80q-73 0 -123 28t-49 85z" />
<glyph unicode="&#xb4;" horiz-adv-x="778" d="M590 973l211 344q35 56 67 53q28 -2 74 -37q50 -50 47 -76q-3 -35 -49 -69l-303 -252q-44 -3 -47 37z" />
<glyph unicode="&#xb5;" horiz-adv-x="1103" d="M-106 -517.5q-9 17.5 2 46.5l432 1098q8 20 5.5 36.5t-14.5 16.5q-14 0 -39 -14.5t-44.5 -30t-53 -43.5t-45.5 -37q-37 13 -35 49q66 88 190 166t232 78q36 0 64 -28t28 -58q0 -34 -10 -57l-203 -498q-21 -55 17 -55q28 0 78 43q185 166 409 636q39 17 76 17 q86 0 143 -45q-23 -59 -74 -188t-89 -227.5t-70 -188.5q-19 -58 10 -58q23 0 84 45t103 88q36 -6 36 -47q-48 -85 -179 -170.5t-251 -85.5q-41 0 -64 30.5t-5 74.5l100 256h-4q-53 -70 -128 -147.5t-172 -145.5t-163 -68q-20 0 -45 21q-21 -3 -33 -47l-24 -78 q-22 -65 -19.5 -171t0.5 -112q-15 -49 -75.5 -84t-131.5 -35q-29 0 -38 17.5z" />
<glyph unicode="&#xb6;" horiz-adv-x="1044" d="M164 -274q0 50 27 89t67 50q42 1 73 -20.5t34 -49.5q-37 -37 -37 -84q-1 -33 17.5 -52t49.5 -19q45 0 95 55.5t90 187.5l88 291q9 29 2.5 46.5t-25.5 17.5q-49 0 -100.5 12.5t-104 40.5t-93.5 68t-67 101t-26 134q0 138 67 239.5t177 165.5q184 107 512 107 q177 0 239 -12q12 -8 5.5 -30.5t-21.5 -33.5l-74 -12q-33 -5 -47.5 -7.5t-32 -10t-23.5 -12.5t-15.5 -22t-14 -31.5t-14.5 -47.5l-269 -903q-42 -142 -89 -233.5t-119 -141.5q-70 -49 -173 -49q-33 0 -66 9t-63.5 27t-49.5 52t-19 78z" />
<glyph unicode="&#xb7;" horiz-adv-x="532" d="M154 406q0 75 50.5 133.5t127.5 58.5q62 0 99.5 -41t37.5 -111q0 -77 -50 -130.5t-124 -53.5q-61 0 -101 39t-40 105z" />
<glyph unicode="&#xb8;" horiz-adv-x="778" d="M59 -420q0 28 18.5 47t47.5 19t73 -37t64 -37t36.5 13.5t16.5 37.5q0 46 -34.5 83.5t-90.5 60.5l-8 18l148 215h108l-78 -106q-12 -15 -8.5 -24t25.5 -24q98 -77 98 -168q0 -82 -77.5 -135t-180.5 -53q-76 0 -117 23t-41 67z" />
<glyph unicode="&#xb9;" horiz-adv-x="819" d="M299.5 667q1.5 20 13.5 29l60 9q44 6 62 29.5t48 109.5l111 327q21 54 16.5 79.5t-45.5 31.5l-53 8q-11 7 -8 29t18 29q95 14 197 42t170 60q29 0 26 -16q-5 -18 -29.5 -83.5t-35.5 -97.5l-135 -409q-26 -78 -21.5 -105.5t43.5 -33.5l54 -9q7 -9 2.5 -29t-15.5 -26 q-172 4 -246 4q-95 0 -221 -4q-13 6 -11.5 26z" />
<glyph unicode="&#xba;" horiz-adv-x="778" d="M213 707q0 75 42.5 160t115.5 145q118 94 252 94q128 0 187.5 -61.5t59.5 -151.5q0 -76 -38 -158t-103 -143q-112 -100 -274 -100q-124 0 -184 60.5t-58 154.5zM410 618q0 -26 13.5 -39.5t35.5 -13.5q49 0 102 86q41 66 80 162.5t39 165.5q0 23 -11 38t-30 15 q-32 0 -74 -45q-53 -61 -104 -170t-51 -199z" />
<glyph unicode="&#xbb;" horiz-adv-x="962" d="M94 68l225 325q18 30 11 58l-94 333q11 36 53 33q170 -255 243 -356q28 -38 -14 -74q-116 -106 -373 -354q-45 0 -51 35zM459 68l225 325q17 29 10 58l-94 333q11 36 53 33q158 -237 244 -356q28 -38 -14 -74q-116 -106 -373 -354q-45 0 -51 35z" />
<glyph unicode="&#xbc;" horiz-adv-x="1720" d="M176.5 528q1.5 20 13.5 29l60 8q44 6 62 30t48 110l111 327q21 54 16.5 79.5t-45.5 31.5l-53 8q-11 7 -8 28.5t18 28.5q212 31 367 103q13 0 21 -4.5t6 -12.5q-5 -18 -30 -82.5t-36 -97.5l-135 -409q-26 -78 -21.5 -106t43.5 -34l54 -8q7 -9 2.5 -29t-15.5 -26 q-172 4 -245 4q-96 0 -222 -4q-13 6 -11.5 26zM354 -12l1092 1351q33 2 59 -13t29 -48l-1100 -1360q-31 -6 -57 15t-23 55zM899 221q-18 12 2 47l615 580q27 24 47 24h59q22 0 15 -18q-5 -13 -21 -27l-551 -508q-19 -16 13 -19l14 -1h145q22 0 28.5 6t12.5 29l45 153 q9 33 51 48q33 12 89.5 23t88.5 11q24 0 17 -20l-64 -215q-7 -23 -3.5 -29t24.5 -6h82q17 -6 10 -37.5t-27 -40.5h-90q-22 0 -27.5 -5.5t-13.5 -31.5l-8 -28q-19 -60 -12.5 -79.5t55.5 -23.5l27 -2q9 -7 6.5 -27.5t-15.5 -27.5q-180 4 -219 4q-83 0 -231 -4q-12 7 -9 27 t15 28l41 4q63 6 80 22t35 79l8 28q7 26 4 31.5t-25 5.5h-313z" />
<glyph unicode="&#xbd;" horiz-adv-x="1720" d="M156.5 528q1.5 20 13.5 29l59 8q44 6 62.5 30t48.5 110l111 327q21 54 16.5 79.5t-45.5 31.5l-53 8q-11 7 -8 28.5t18 28.5q94 13 195.5 42t170.5 61q13 0 21 -4.5t6 -12.5q-5 -18 -29.5 -83t-35.5 -97l-136 -409q-26 -78 -21 -106t44 -34l53 -8q7 -9 3 -29t-15 -26 q-172 4 -246 4q-95 0 -221 -4q-13 6 -11.5 26zM338 -12l1092 1351q33 2 59 -13t29 -48l-1100 -1360q-31 -6 -57 15t-23 55zM924 37q99 68 241 180q52 41 71 56.5t59 49.5t55 50.5t39.5 44.5t33.5 49t17 47t8 53q0 51 -29.5 85t-85.5 34q-50 0 -96.5 -34t-81.5 -87 q-18 -4 -33 6.5t-18 28.5q46 95 137.5 150t192.5 55q108 0 184 -60.5t76 -164.5q0 -51 -18.5 -92t-69 -83.5t-82.5 -63.5t-115 -70q-12 -7 -18 -11l-121 -72q-25 -14 -21.5 -26t33.5 -12h160q52 0 75.5 10.5t59.5 52.5q10 6 26 2t23 -18q-23 -68 -54.5 -123.5t-55.5 -77.5 q-110 4 -189 4h-242q-109 0 -155 -4q-20 17 -6 41z" />
<glyph unicode="&#xbe;" horiz-adv-x="1720" d="M125 539q0 37 25 61.5t63 24.5q18 0 35.5 -10.5t26.5 -21t21.5 -28.5t14.5 -20q26 -37 72 -37q94 0 157.5 77t63.5 181q0 54 -32.5 91.5t-86.5 37.5q-70 0 -129 -51q-29 9 -37.5 34.5t7.5 47.5q58 14 132 43t115 55q82 49 82 109q0 33 -25 52t-65 19q-89 0 -168 -86 q-19 -3 -31.5 7t-9.5 30q127 156 312 156q78 0 139 -40.5t61 -117.5q0 -110 -190 -158q-15 -4 -5 -12q6 -5 15 -6q66 -8 116 -60t50 -133q0 -88 -60.5 -159.5t-150.5 -118.5q-159 -80 -346 -80q-73 0 -123 28t-49 85zM416 -12l1091 1351q33 2 59 -13t29 -48l-1099 -1360 q-31 -6 -57 15t-23 55zM938 221q-18 12 2 47l614 580q27 24 48 24h59q22 0 15 -18q-5 -13 -21 -27l-551 -508q-20 -17 15 -20h11h146q22 0 28.5 6t12.5 29l45 153q9 33 51 48q33 12 89.5 23t88.5 11q24 0 17 -20l-64 -215q-7 -23 -3.5 -29t24.5 -6h82q17 -6 10 -37.5 t-27 -40.5h-90q-22 0 -27.5 -5.5t-13.5 -31.5l-8 -28q-19 -60 -12.5 -79.5t55.5 -23.5l27 -2q9 -7 6.5 -27.5t-15.5 -27.5q-180 4 -219 4q-83 0 -231 -4q-12 7 -9 27t15 28l41 4q63 6 80 22t35 79l8 28q7 26 4 31.5t-25 5.5h-313z" />
<glyph unicode="&#xbf;" horiz-adv-x="716" d="M-82 -199q0 86 56 158.5t159 114.5l156 63q72 29 102.5 56.5t30.5 62.5q0 55 -8 96q9 12 29.5 15t33.5 -5q31 -43 49.5 -99t18.5 -105q0 -89 -56.5 -147t-173.5 -99l-151 -53q-133 -47 -133 -95q0 -34 36 -57.5t91 -23.5q63 0 104 8q74 12 76 12q36 0 57 -24.5t21 -59.5 q0 -64 -54 -114t-149 -50q-109 0 -202 104t-93 242zM340 623q0 77 50 130.5t124 53.5q62 0 101.5 -38.5t39.5 -104.5q0 -75 -50.5 -134t-127.5 -59q-62 0 -99.5 41t-37.5 111z" />
<glyph unicode="&#xc0;" horiz-adv-x="1228" d="M-160 29.5q-2 28.5 13 38.5l49 8q77 12 115.5 42.5t115.5 143.5q91 135 275.5 405.5t275.5 405.5q6 10 20.5 31.5t21 31.5t18.5 28.5t18 28.5t15.5 25t14.5 24.5t10.5 20.5t8.5 19t4 14q32 2 65.5 12t59 22.5t45.5 24.5t31 21l12 8h4q37 0 37 -32q0 -181 -7 -545t-7 -545 q0 -39 0.5 -56t2 -41.5t5.5 -34t10.5 -23t17.5 -18.5t25.5 -9.5t36.5 -7.5l49 -6q12 -9 9.5 -37.5t-15.5 -34.5q-114 6 -289 6t-270 -6q-18 5 -19.5 33.5t9.5 38.5l47 6q66 8 85 27.5t21 60.5l8 260q1 31 -8.5 37t-56.5 6h-254q-48 0 -60 -5t-30 -36l-135 -217 q-39 -68 -39 -90q0 -12 19.5 -22t47.5 -15l74 -10q15 -10 11.5 -38.5t-21.5 -35.5q-153 6 -277 6q-111 0 -196 -6q-21 7 -23 35.5zM492.5 579.5q7.5 -8.5 50.5 -8.5h196q36 0 44 8.5t10 47.5l12 252q6 169 10 219h-4q-31 -49 -129 -201l-178 -281q-19 -28 -11.5 -36.5z M627 1622q-10 33 20 86q34 61 68 61q27 0 65 -28l322 -236q4 -12 -3.5 -30t-19.5 -29l-389 127q-53 16 -63 49z" />
<glyph unicode="&#xc1;" horiz-adv-x="1228" d="M-160 29.5q-2 28.5 13 38.5l49 8q77 12 115.5 42.5t115.5 143.5q91 135 275.5 405.5t275.5 405.5q6 10 20.5 31.5t21 31.5t18.5 28.5t18 28.5t15.5 25t14.5 24.5t10.5 20.5t8.5 19t4 14q32 2 65.5 12t59 22.5t45.5 24.5t31 21l12 8h4q37 0 37 -32q0 -181 -7 -545t-7 -545 q0 -39 0.5 -56t2 -41.5t5.5 -34t10.5 -23t17.5 -18.5t25.5 -9.5t36.5 -7.5l49 -6q12 -9 9.5 -37.5t-15.5 -34.5q-114 6 -289 6t-270 -6q-18 5 -19.5 33.5t9.5 38.5l47 6q66 8 85 27.5t21 60.5l8 260q1 31 -8.5 37t-56.5 6h-254q-48 0 -60 -5t-30 -36l-135 -217 q-39 -68 -39 -90q0 -12 19.5 -22t47.5 -15l74 -10q15 -10 11.5 -38.5t-21.5 -35.5q-153 6 -277 6q-111 0 -196 -6q-21 7 -23 35.5zM492.5 579.5q7.5 -8.5 50.5 -8.5h196q36 0 44 8.5t10 47.5l12 252q6 169 10 219h-4q-31 -49 -129 -201l-178 -281q-19 -28 -11.5 -36.5z M844 1495l321 242q42 32 66 32q33 0 67 -61q30 -54 21 -86q-4 -13 -20 -27t-44 -22l-389 -127q-12 5 -19 19.5t-3 29.5z" />
<glyph unicode="&#xc2;" horiz-adv-x="1228" d="M-160 29.5q-2 28.5 13 38.5l49 8q77 12 115.5 42.5t115.5 143.5q91 135 275.5 405.5t275.5 405.5q6 10 20.5 31.5t21 31.5t18.5 28.5t18 28.5t15.5 25t14.5 24.5t10.5 20.5t8.5 19t4 14q32 2 65.5 12t59 22.5t45.5 24.5t31 21l12 8h4q37 0 37 -32q0 -181 -7 -545t-7 -545 q0 -39 0.5 -56t2 -41.5t5.5 -34t10.5 -23t17.5 -18.5t25.5 -9.5t36.5 -7.5l49 -6q12 -9 9.5 -37.5t-15.5 -34.5q-114 6 -289 6t-270 -6q-18 5 -19.5 33.5t9.5 38.5l47 6q66 8 85 27.5t21 60.5l8 260q1 31 -8.5 37t-56.5 6h-254q-48 0 -60 -5t-30 -36l-135 -217 q-39 -68 -39 -90q0 -12 19.5 -22t47.5 -15l74 -10q15 -10 11.5 -38.5t-21.5 -35.5q-153 6 -277 6q-111 0 -196 -6q-21 7 -23 35.5zM492.5 579.5q7.5 -8.5 50.5 -8.5h196q36 0 44 8.5t10 47.5l12 252q6 169 10 219h-4q-31 -49 -129 -201l-178 -281q-19 -28 -11.5 -36.5z M647.5 1464q-8.5 16 1.5 35l303 254q55 49 101 0l239 -254q4 -18 -7.5 -33.5t-24.5 -17.5l-244 125q-33 17 -72 0l-272 -125q-16 0 -24.5 16z" />
<glyph unicode="&#xc3;" horiz-adv-x="1228" d="M-160 29.5q-2 28.5 13 38.5l49 8q77 12 115.5 42.5t115.5 143.5q91 135 275.5 405.5t275.5 405.5q6 10 20.5 31.5t21 31.5t18.5 28.5t18 28.5t15.5 25t14.5 24.5t10.5 20.5t8.5 19t4 14q32 2 65.5 12t59 22.5t45.5 24.5t31 21l12 8h4q37 0 37 -32q0 -181 -7 -545t-7 -545 q0 -39 0.5 -56t2 -41.5t5.5 -34t10.5 -23t17.5 -18.5t25.5 -9.5t36.5 -7.5l49 -6q12 -9 9.5 -37.5t-15.5 -34.5q-114 6 -289 6t-270 -6q-18 5 -19.5 33.5t9.5 38.5l47 6q66 8 85 27.5t21 60.5l8 260q1 31 -8.5 37t-56.5 6h-254q-48 0 -60 -5t-30 -36l-135 -217 q-39 -68 -39 -90q0 -12 19.5 -22t47.5 -15l74 -10q15 -10 11.5 -38.5t-21.5 -35.5q-153 6 -277 6q-111 0 -196 -6q-21 7 -23 35.5zM492.5 579.5q7.5 -8.5 50.5 -8.5h196q36 0 44 8.5t10 47.5l12 252q6 169 10 219h-4q-31 -49 -129 -201l-178 -281q-19 -28 -11.5 -36.5z M684 1430q10 40 39 99.5t57 88.5q54 57 144 57h133q62 0 99 19t61 78q23 4 45 1t30 -12q-26 -107 -80 -176q-25 -32 -55.5 -44.5t-85.5 -12.5h-110q-78 0 -120.5 -23.5t-82.5 -87.5q-17 -6 -42.5 -2.5t-31.5 15.5z" />
<glyph unicode="&#xc4;" horiz-adv-x="1228" d="M-160 29.5q-2 28.5 13 38.5l49 8q77 12 115.5 42.5t115.5 143.5q91 135 275.5 405.5t275.5 405.5q6 10 20.5 31.5t21 31.5t18.5 28.5t18 28.5t15.5 25t14.5 24.5t10.5 20.5t8.5 19t4 14q32 2 65.5 12t59 22.5t45.5 24.5t31 21l12 8h4q37 0 37 -32q0 -181 -7 -545t-7 -545 q0 -39 0.5 -56t2 -41.5t5.5 -34t10.5 -23t17.5 -18.5t25.5 -9.5t36.5 -7.5l49 -6q12 -9 9.5 -37.5t-15.5 -34.5q-114 6 -289 6t-270 -6q-18 5 -19.5 33.5t9.5 38.5l47 6q66 8 85 27.5t21 60.5l8 260q1 31 -8.5 37t-56.5 6h-254q-48 0 -60 -5t-30 -36l-135 -217 q-39 -68 -39 -90q0 -12 19.5 -22t47.5 -15l74 -10q15 -10 11.5 -38.5t-21.5 -35.5q-153 6 -277 6q-111 0 -196 -6q-21 7 -23 35.5zM492.5 579.5q7.5 -8.5 50.5 -8.5h196q36 0 44 8.5t10 47.5l12 252q6 169 10 219h-4q-31 -49 -129 -201l-178 -281q-19 -28 -11.5 -36.5z M659 1583q8 53 45.5 88t88.5 35q56 0 86.5 -36t23.5 -91q-8 -53 -46 -87t-93 -34q-52 0 -83 35.5t-22 89.5zM1067 1583q8 53 45 88t88 35q56 0 87 -36t24 -91q-8 -53 -46.5 -87t-93.5 -34q-52 0 -82.5 35t-21.5 90z" />
<glyph unicode="&#xc5;" horiz-adv-x="1228" d="M-160 29.5q-2 28.5 13 38.5l49 8q77 12 115.5 42.5t115.5 143.5q91 135 275.5 405.5t275.5 405.5q6 10 20.5 31.5t21 31.5t18.5 28.5t18 28.5t15.5 25t14.5 24.5t10.5 20.5t8.5 19t4 14q32 2 65.5 12t59 22.5t45.5 24.5t31 21l12 8h4q37 0 37 -32q0 -181 -7 -545t-7 -545 q0 -39 0.5 -56t2 -41.5t5.5 -34t10.5 -23t17.5 -18.5t25.5 -9.5t36.5 -7.5l49 -6q12 -9 9.5 -37.5t-15.5 -34.5q-114 6 -289 6t-270 -6q-18 5 -19.5 33.5t9.5 38.5l47 6q66 8 85 27.5t21 60.5l8 260q1 31 -8.5 37t-56.5 6h-254q-48 0 -60 -5t-30 -36l-135 -217 q-39 -68 -39 -90q0 -12 19.5 -22t47.5 -15l74 -10q15 -10 11.5 -38.5t-21.5 -35.5q-153 6 -277 6q-111 0 -196 -6q-21 7 -23 35.5zM492.5 579.5q7.5 -8.5 50.5 -8.5h196q36 0 44 8.5t10 47.5l12 252q6 169 10 219h-4q-31 -49 -129 -201l-178 -281q-19 -28 -11.5 -36.5z M780 1614q0 81 58.5 141t152.5 60t152.5 -60t58.5 -141t-58.5 -142t-152.5 -61t-152.5 61t-58.5 142zM899 1612q0 -53 24.5 -90t67.5 -37t67.5 37t24.5 90t-24.5 89.5t-67.5 39.5q-43 -3 -67.5 -39.5t-24.5 -89.5z" />
<glyph unicode="&#xc6;" horiz-adv-x="1736" d="M-208 30.5q0 23.5 13 35.5l56 10q34 6 57.5 16t67.5 49t104 111q572 673 733 872q35 43 51 66.5t20.5 41.5t-6.5 25.5t-38 12.5l-111 16q-19 11 -14 37t27 35q90 -4 176 -4q61 -2 200 -2h531q231 0 278 6q-55 -137 -104 -322q-7 -17 -37.5 -19t-40.5 11q9 106 -8 158 q-24 71 -172 71h-160q-53 0 -67 -11.5t-33 -69.5l-113 -357q-13 -43 -7 -52t46 -9h135q80 0 113.5 20.5t73.5 93.5l26 50q15 13 44 12.5t34 -14.5q-4 -11 -76 -218q-12 -38 -61 -217q-12 -12 -42 -13t-36 11l6 52q9 73 -12.5 93.5t-102.5 20.5h-135q-40 0 -53 -10t-25 -51 l-77 -250q-48 -150 -29 -193q14 -29 53.5 -40t147.5 -11q53 0 82 1.5t67 9t64 22t60 40.5t68 66t76 97q17 13 45 9t37 -22q-28 -81 -76.5 -182.5t-80.5 -140.5q-126 4 -232 4q-86 2 -262 2h-252q-144 0 -297 -6q-16 9 -13 37.5t24 34.5l69 10q40 6 59.5 12.5t39.5 31.5 t34 62t39 113l94 295q13 37 8 48t-40 11h-230q-32 0 -47.5 -10.5t-53.5 -56.5q-3 -3 -4.5 -5t-4 -5t-4.5 -5q-223 -267 -324 -415q-9 -13 -13 -22.5t-6 -18.5t4.5 -15t20.5 -8l107 -22q13 -12 10 -37t-21 -35q-132 6 -258 6q-112 0 -211 -6q-11 13 -11 36.5zM663.5 763.5 q1.5 -5.5 28.5 -5.5h158q46 0 60.5 7.5t23.5 37.5l119 375q18 61 18 79h-10q-10 -5 -76 -83q-46 -54 -160.5 -200.5t-144.5 -182.5q-18 -22 -16.5 -27.5z" />
<glyph unicode="&#xc7;" horiz-adv-x="1347" d="M199 506q1 189 84.5 359.5t208.5 281.5q114 101 282 169t381 68q227 0 410 -75q-41 -94 -101 -318q-10 -17 -41 -17t-37 17q13 156 -46.5 227.5t-202.5 71.5q-102 0 -199 -46.5t-173 -126.5t-134.5 -182t-89.5 -217.5t-31 -228.5q0 -97 19 -172.5t49.5 -122.5t73 -78 t86 -43t91.5 -12q121 0 219.5 71t211.5 222q17 12 44 8.5t31 -20.5q-27 -84 -71.5 -180.5t-73.5 -143.5q-25 -3 -81 -16t-125 -23.5t-144 -11.5l-56 -73q-12 -15 -8.5 -24t25.5 -24q98 -77 98 -168q0 -82 -77.5 -135t-180.5 -53q-76 0 -117 23t-41 67q0 28 18.5 47t47.5 19 t73 -37t64 -37t36.5 13.5t16.5 37.5q0 46 -34.5 83.5t-90.5 60.5l-8 18l129 188q-263 21 -400.5 166t-135.5 367z" />
<glyph unicode="&#xc8;" horiz-adv-x="1220" d="M-19.5 31.5q2.5 28.5 23.5 34.5l70 10q40 6 59.5 13t40 31.5t35 61.5t37.5 113l239 762q17 55 24.5 86t10 58t-6 40.5t-25 22.5t-46.5 14l-49 8q-14 10 -10 37.5t25 34.5q144 -6 280 -6h455q231 0 278 6q-55 -137 -104 -322q-7 -17 -37.5 -19t-40.5 11q9 106 -8 158 q-24 71 -172 71h-160q-53 0 -67 -11.5t-33 -69.5l-113 -357q-13 -43 -7 -52t46 -9h135q80 0 113.5 20.5t73.5 93.5l26 50q15 13 44 12.5t34 -14.5q-4 -11 -76 -218q-12 -38 -61 -217q-12 -12 -42 -13t-36 11l6 52q9 73 -12.5 93.5t-102.5 20.5h-135q-40 0 -53 -10t-25 -51 l-77 -250q-49 -151 -29 -195q14 -28 53.5 -38.5t147.5 -10.5q53 0 82 1.5t67 9t64 22t60 40.5t68 66t76 97q17 13 45 9t37 -22q-28 -81 -76.5 -182.5t-80.5 -140.5q-126 4 -232 4q-86 2 -262 2h-266q-144 0 -297 -6q-16 9 -13.5 37.5zM606 1622q-9 32 21 86q34 61 67 61 q28 0 66 -28l321 -236q4 -12 -3 -30t-19 -29l-389 127q-28 8 -44 22t-20 27z" />
<glyph unicode="&#xc9;" horiz-adv-x="1220" d="M-19.5 31.5q2.5 28.5 23.5 34.5l70 10q40 6 59.5 13t40 31.5t35 61.5t37.5 113l239 762q17 55 24.5 86t10 58t-6 40.5t-25 22.5t-46.5 14l-49 8q-14 10 -10 37.5t25 34.5q144 -6 280 -6h455q231 0 278 6q-55 -137 -104 -322q-7 -17 -37.5 -19t-40.5 11q9 106 -8 158 q-24 71 -172 71h-160q-53 0 -67 -11.5t-33 -69.5l-113 -357q-13 -43 -7 -52t46 -9h135q80 0 113.5 20.5t73.5 93.5l26 50q15 13 44 12.5t34 -14.5q-4 -11 -76 -218q-12 -38 -61 -217q-12 -12 -42 -13t-36 11l6 52q9 73 -12.5 93.5t-102.5 20.5h-135q-40 0 -53 -10t-25 -51 l-77 -250q-49 -151 -29 -195q14 -28 53.5 -38.5t147.5 -10.5q53 0 82 1.5t67 9t64 22t60 40.5t68 66t76 97q17 13 45 9t37 -22q-28 -81 -76.5 -182.5t-80.5 -140.5q-126 4 -232 4q-86 2 -262 2h-266q-144 0 -297 -6q-16 9 -13.5 37.5zM840 1495l321 242q42 32 66 32 q33 0 67 -61q30 -54 21 -86q-4 -13 -20 -27t-44 -22l-389 -127q-12 5 -19 19.5t-3 29.5z" />
<glyph unicode="&#xca;" horiz-adv-x="1220" d="M-19.5 31.5q2.5 28.5 23.5 34.5l70 10q40 6 59.5 13t40 31.5t35 61.5t37.5 113l239 762q17 55 24.5 86t10 58t-6 40.5t-25 22.5t-46.5 14l-49 8q-14 10 -10 37.5t25 34.5q144 -6 280 -6h455q231 0 278 6q-55 -137 -104 -322q-7 -17 -37.5 -19t-40.5 11q9 106 -8 158 q-24 71 -172 71h-160q-53 0 -67 -11.5t-33 -69.5l-113 -357q-13 -43 -7 -52t46 -9h135q80 0 113.5 20.5t73.5 93.5l26 50q15 13 44 12.5t34 -14.5q-4 -11 -76 -218q-12 -38 -61 -217q-12 -12 -42 -13t-36 11l6 52q9 73 -12.5 93.5t-102.5 20.5h-135q-40 0 -53 -10t-25 -51 l-77 -250q-49 -151 -29 -195q14 -28 53.5 -38.5t147.5 -10.5q53 0 82 1.5t67 9t64 22t60 40.5t68 66t76 97q17 13 45 9t37 -22q-28 -81 -76.5 -182.5t-80.5 -140.5q-126 4 -232 4q-86 2 -262 2h-266q-144 0 -297 -6q-16 9 -13.5 37.5zM643.5 1462q-8.5 16 1.5 35l305 256 q25 22 52 22t47 -22l241 -256q3 -18 -9.5 -33.5t-25.5 -17.5l-243 127q-33 17 -72 0l-272 -127q-16 0 -24.5 16z" />
<glyph unicode="&#xcb;" horiz-adv-x="1220" d="M-19.5 31.5q2.5 28.5 23.5 34.5l70 10q40 6 59.5 13t40 31.5t35 61.5t37.5 113l239 762q17 55 24.5 86t10 58t-6 40.5t-25 22.5t-46.5 14l-49 8q-14 10 -10 37.5t25 34.5q144 -6 280 -6h455q231 0 278 6q-55 -137 -104 -322q-7 -17 -37.5 -19t-40.5 11q9 106 -8 158 q-24 71 -172 71h-160q-53 0 -67 -11.5t-33 -69.5l-113 -357q-13 -43 -7 -52t46 -9h135q80 0 113.5 20.5t73.5 93.5l26 50q15 13 44 12.5t34 -14.5q-4 -11 -76 -218q-12 -38 -61 -217q-12 -12 -42 -13t-36 11l6 52q9 73 -12.5 93.5t-102.5 20.5h-135q-40 0 -53 -10t-25 -51 l-77 -250q-49 -151 -29 -195q14 -28 53.5 -38.5t147.5 -10.5q53 0 82 1.5t67 9t64 22t60 40.5t68 66t76 97q17 13 45 9t37 -22q-28 -81 -76.5 -182.5t-80.5 -140.5q-126 4 -232 4q-86 2 -262 2h-266q-144 0 -297 -6q-16 9 -13.5 37.5zM647 1583q8 53 45 88t88 35 q56 0 87 -36t24 -91q-8 -53 -46 -87t-93 -34q-52 0 -83 35.5t-22 89.5zM1055 1583q8 53 45 88t88 35q56 0 86.5 -36t23.5 -91q-8 -53 -46 -87t-93 -34q-52 0 -82.5 35t-21.5 90z" />
<glyph unicode="&#xcc;" horiz-adv-x="749" d="M0 32.5q4 29.5 27 33.5l55 10q37 7 55 14t37.5 31t34 61.5t37.5 112.5l239 762q17 55 24.5 85.5t9.5 57.5t-7.5 40t-27.5 21.5t-50 14.5l-57 10q-12 9 -8.5 37t22.5 35q172 -6 316 -6q135 0 288 6q16 -9 13 -37.5t-23 -34.5l-59 -10q-37 -6 -55 -13t-37.5 -31t-34 -62 t-37.5 -113l-240 -762q-17 -55 -25 -85.5t-10 -57t8 -40t28 -22t50 -14.5l58 -10q10 -9 4.5 -36t-19.5 -36q-164 6 -307 6q-144 0 -297 -6q-16 9 -12 38.5zM371 1622q-10 33 20 86q34 61 68 61q27 0 65 -28l322 -236q4 -12 -3.5 -30t-19.5 -29l-389 127q-53 16 -63 49z" />
<glyph unicode="&#xcd;" horiz-adv-x="749" d="M0 32.5q4 29.5 27 33.5l55 10q37 7 55 14t37.5 31t34 61.5t37.5 112.5l239 762q17 55 24.5 85.5t9.5 57.5t-7.5 40t-27.5 21.5t-50 14.5l-57 10q-12 9 -8.5 37t22.5 35q172 -6 316 -6q135 0 288 6q16 -9 13 -37.5t-23 -34.5l-59 -10q-37 -6 -55 -13t-37.5 -31t-34 -62 t-37.5 -113l-240 -762q-17 -55 -25 -85.5t-10 -57t8 -40t28 -22t50 -14.5l58 -10q10 -9 4.5 -36t-19.5 -36q-164 6 -307 6q-144 0 -297 -6q-16 9 -12 38.5zM604 1495l322 242q42 32 65 32q34 0 68 -61q30 -53 20 -86t-63 -49l-389 -127q-12 5 -19.5 19.5t-3.5 29.5z" />
<glyph unicode="&#xce;" horiz-adv-x="749" d="M0 32.5q4 29.5 27 33.5l55 10q37 7 55 14t37.5 31t34 61.5t37.5 112.5l239 762q17 55 24.5 85.5t9.5 57.5t-7.5 40t-27.5 21.5t-50 14.5l-57 10q-12 9 -8.5 37t22.5 35q172 -6 316 -6q135 0 288 6q16 -9 13 -37.5t-23 -34.5l-59 -10q-37 -6 -55 -13t-37.5 -31t-34 -62 t-37.5 -113l-240 -762q-17 -55 -25 -85.5t-10 -57t8 -40t28 -22t50 -14.5l58 -10q10 -9 4.5 -36t-19.5 -36q-164 6 -307 6q-144 0 -297 -6q-16 9 -12 38.5zM414 1462q-8 16 2 35l305 256q25 22 51.5 22t46.5 -22l242 -256q3 -18 -9.5 -33.5t-25.5 -17.5l-244 127 q-33 17 -71 0l-273 -127q-16 0 -24 16z" />
<glyph unicode="&#xcf;" horiz-adv-x="749" d="M0 32.5q4 29.5 27 33.5l55 10q37 7 55 14t37.5 31t34 61.5t37.5 112.5l239 762q17 55 24.5 85.5t9.5 57.5t-7.5 40t-27.5 21.5t-50 14.5l-57 10q-12 9 -8.5 37t22.5 35q172 -6 316 -6q135 0 288 6q16 -9 13 -37.5t-23 -34.5l-59 -10q-37 -6 -55 -13t-37.5 -31t-34 -62 t-37.5 -113l-240 -762q-17 -55 -25 -85.5t-10 -57t8 -40t28 -22t50 -14.5l58 -10q10 -9 4.5 -36t-19.5 -36q-164 6 -307 6q-144 0 -297 -6q-16 9 -12 38.5zM412 1583q8 53 45 88t88 35q56 0 86.5 -36t23.5 -91q-8 -53 -46 -87t-93 -34q-52 0 -82.5 35t-21.5 90zM819 1583 q8 53 45 88t88 35q56 0 87 -36t24 -91q-8 -53 -46 -87t-93 -34q-52 0 -83 35.5t-22 89.5z" />
<glyph unicode="&#xd0;" horiz-adv-x="1591" d="M11.5 31.5q2.5 28.5 23.5 31.5l59 11q48 8 70.5 23.5t42.5 57t51 140.5l111 354h-205q-13 18 -5 56t29 53h215l97 309q14 46 20.5 72t9.5 49t-3 34.5t-18 19.5t-34 13l-59 15q-14 12 -10 37t22 32q211 19 451 19q354 -3 534 -125q103 -70 162 -184.5t59 -262.5 q0 -142 -55 -276t-154 -236q-279 -286 -823 -286q-21 0 -162 6q-70 6 -123 6q-139 0 -292 -6q-16 9 -13.5 37.5zM512 174q-2 -42 33.5 -67t101.5 -25q214 0 402 156q94 77 158.5 186.5t92 215t27.5 208.5q0 51 -6.5 98.5t-31 108t-65 104.5t-116 74.5t-176.5 30.5 q-65 0 -84 -14.5t-39 -80.5l-129 -411h229q11 -21 5 -59.5t-29 -49.5h-240l-104 -332q-29 -88 -29 -143z" />
<glyph unicode="&#xd1;" horiz-adv-x="1478" d="M-16 29.5q0 26.5 18 36.5l47 10q71 15 103.5 43.5t58.5 99.5q52 152 96 295l168 543q17 56 24.5 86.5t10 58.5t-6.5 41t-27 22t-50 13l-57 8q-14 9 -9 36t23 36q159 -6 258 -6q97 0 164 6q-4 -28 4.5 -68t38 -113.5t48 -117t69.5 -156.5l96 -213q93 -207 129 -274 q18 30 47 127l88 295q64 219 80 292q19 76 3.5 107t-89.5 41l-62 8q-14 13 -9.5 37.5t24.5 34.5q163 -6 254 -6q96 0 237 6q12 -9 10.5 -35.5t-14.5 -36.5l-49 -10q-70 -14 -102.5 -41.5t-59.5 -101.5q-73 -213 -98 -295l-150 -490q-41 -135 -96 -342q-25 -22 -129 -22 q-2 0 -18 42t-45.5 115.5t-53.5 128.5l-219 498q-127 294 -133 305q-13 -33 -51 -160l-121 -399q-69 -222 -80 -293q-16 -76 -2 -105t88 -40l62 -10q9 -13 7.5 -37.5t-17.5 -34.5q-166 6 -259 6q-97 0 -235 -6q-14 9 -14 35.5zM805 1430q10 40 39 99.5t57 88.5q54 57 143 57 h134q62 0 98.5 19t60.5 78q23 5 46 1.5t30 -12.5q-26 -107 -80 -176q-25 -32 -55.5 -44.5t-85.5 -12.5h-111q-78 0 -120 -23.5t-82 -87.5q-17 -6 -42.5 -2.5t-31.5 15.5z" />
<glyph unicode="&#xd2;" horiz-adv-x="1552" d="M203 514q0 194 87.5 378t239.5 308q225 184 506 184q79 0 154.5 -17t151 -59.5t131.5 -106t91 -165.5t35 -229q0 -161 -68 -324.5t-183 -281.5q-92 -94 -241.5 -164t-320.5 -70q-135 0 -240.5 36t-168 92t-103.5 131t-56 145t-15 143zM496 403q0 -153 68.5 -247.5 t193.5 -94.5q152 0 280 148q134 155 201.5 350.5t67.5 392.5q0 172 -67 255t-181 83q-105 0 -219 -88q-133 -107 -238.5 -334t-105.5 -465zM772 1622q-9 32 21 86q34 61 67 61q28 0 66 -28l321 -236q4 -12 -3 -30t-19 -29l-389 127q-28 8 -44 22t-20 27z" />
<glyph unicode="&#xd3;" horiz-adv-x="1552" d="M203 514q0 194 87.5 378t239.5 308q225 184 506 184q79 0 154.5 -17t151 -59.5t131.5 -106t91 -165.5t35 -229q0 -161 -68 -324.5t-183 -281.5q-92 -94 -241.5 -164t-320.5 -70q-135 0 -240.5 36t-168 92t-103.5 131t-56 145t-15 143zM496 403q0 -153 68.5 -247.5 t193.5 -94.5q152 0 280 148q134 155 201.5 350.5t67.5 392.5q0 172 -67 255t-181 83q-105 0 -219 -88q-133 -107 -238.5 -334t-105.5 -465zM965 1495l321 242q42 32 66 32q33 0 67 -61q30 -54 21 -86q-4 -13 -20 -27t-44 -22l-389 -127q-12 5 -19 19.5t-3 29.5z" />
<glyph unicode="&#xd4;" horiz-adv-x="1552" d="M203 514q0 194 87.5 378t239.5 308q225 184 506 184q79 0 154.5 -17t151 -59.5t131.5 -106t91 -165.5t35 -229q0 -161 -68 -324.5t-183 -281.5q-92 -94 -241.5 -164t-320.5 -70q-135 0 -240.5 36t-168 92t-103.5 131t-56 145t-15 143zM496 403q0 -153 68.5 -247.5 t193.5 -94.5q152 0 280 148q134 155 201.5 350.5t67.5 392.5q0 172 -67 255t-181 83q-105 0 -219 -88q-133 -107 -238.5 -334t-105.5 -465zM758 1462q-8 16 2 35l305 256q25 22 51.5 22t46.5 -22l242 -256q3 -18 -9.5 -33.5t-25.5 -17.5l-244 127q-33 17 -71 0l-273 -127 q-16 0 -24 16z" />
<glyph unicode="&#xd5;" horiz-adv-x="1552" d="M203 514q0 194 87.5 378t239.5 308q225 184 506 184q79 0 154.5 -17t151 -59.5t131.5 -106t91 -165.5t35 -229q0 -161 -68 -324.5t-183 -281.5q-92 -94 -241.5 -164t-320.5 -70q-135 0 -240.5 36t-168 92t-103.5 131t-56 145t-15 143zM496 403q0 -153 68.5 -247.5 t193.5 -94.5q152 0 280 148q134 155 201.5 350.5t67.5 392.5q0 172 -67 255t-181 83q-105 0 -219 -88q-133 -107 -238.5 -334t-105.5 -465zM801 1430q10 40 39 99.5t57 88.5q54 57 143 57h134q62 0 98.5 19t60.5 78q23 5 46 1.5t30 -12.5q-26 -107 -80 -176 q-25 -32 -55.5 -44.5t-85.5 -12.5h-111q-78 0 -120.5 -23.5t-82.5 -87.5q-17 -6 -42 -2.5t-31 15.5z" />
<glyph unicode="&#xd6;" horiz-adv-x="1552" d="M203 514q0 194 87.5 378t239.5 308q225 184 506 184q79 0 154.5 -17t151 -59.5t131.5 -106t91 -165.5t35 -229q0 -161 -68 -324.5t-183 -281.5q-92 -94 -241.5 -164t-320.5 -70q-135 0 -240.5 36t-168 92t-103.5 131t-56 145t-15 143zM496 403q0 -153 68.5 -247.5 t193.5 -94.5q152 0 280 148q134 155 201.5 350.5t67.5 392.5q0 172 -67 255t-181 83q-105 0 -219 -88q-133 -107 -238.5 -334t-105.5 -465zM772 1583q8 53 45 88t88 35q56 0 87 -36t24 -91q-8 -53 -46 -87t-93 -34q-52 0 -83 35.5t-22 89.5zM1180 1583q8 53 45 88t88 35 q56 0 86.5 -36t23.5 -91q-8 -53 -46 -87t-93 -34q-52 0 -82.5 35t-21.5 90z" />
<glyph unicode="&#xd7;" d="M150 119l294 297l-294 297l104 110l299 -299l299 303l106 -108l-299 -301l299 -299l-106 -111l-301 301l-297 -301z" />
<glyph unicode="&#xd8;" horiz-adv-x="1552" d="M203 514q0 194 87.5 378t239.5 308q225 184 506 184q182 0 318 -79l104 122q26 2 50.5 -16.5t33.5 -48.5l-102 -121q159 -152 159 -430q0 -173 -67 -331.5t-184 -278.5q-92 -94 -241.5 -164t-320.5 -70q-217 0 -358 90l-125 -147q-25 0 -49 23t-31 47l123 143 q-76 79 -109.5 182t-33.5 209zM492 403q0 -59 10 -98l753 883q-63 102 -196 102q-109 0 -223 -88q-133 -107 -238.5 -334t-105.5 -465zM541 188q68 -127 219 -127q68 0 143 34t141 112q133 157 200 353t67 392q0 69 -13 123z" />
<glyph unicode="&#xd9;" horiz-adv-x="1497" d="M272 328q0 92 39 217l158 512q17 55 24.5 86t9.5 58.5t-7.5 41t-27.5 22.5t-50 15l-49 8q-16 9 -10 35t28 35q147 -6 297 -6q141 0 285 6q16 -9 12.5 -36.5t-23.5 -33.5l-51 -10q-47 -9 -69 -24t-42 -57t-51 -140l-147 -473q-40 -131 -43 -226q-2 -134 63.5 -207 t200.5 -73q71 0 132.5 26t106 68t83.5 105.5t65 127.5t51 144l91 289q53 172 79 292q18 76 3.5 105.5t-89.5 42.5l-61 10q-10 13 -8 36.5t18 33.5q166 -6 258 -6q97 0 238 6q14 -9 13.5 -34.5t-17.5 -35.5l-49 -12q-72 -18 -103.5 -44.5t-58.5 -98.5q-48 -123 -101 -295 l-94 -301q-48 -155 -98.5 -256.5t-136.5 -176.5q-70 -63 -181.5 -100t-230.5 -37q-101 0 -181 19t-143.5 60t-98 112.5t-34.5 169.5zM766 1622q-10 33 20 86q34 61 68 61q28 0 66 -28l321 -236q4 -12 -3 -30t-19 -29l-390 127q-53 16 -63 49z" />
<glyph unicode="&#xda;" horiz-adv-x="1497" d="M272 328q0 92 39 217l158 512q17 55 24.5 86t9.5 58.5t-7.5 41t-27.5 22.5t-50 15l-49 8q-16 9 -10 35t28 35q147 -6 297 -6q141 0 285 6q16 -9 12.5 -36.5t-23.5 -33.5l-51 -10q-47 -9 -69 -24t-42 -57t-51 -140l-147 -473q-40 -131 -43 -226q-2 -134 63.5 -207 t200.5 -73q71 0 132.5 26t106 68t83.5 105.5t65 127.5t51 144l91 289q53 172 79 292q18 76 3.5 105.5t-89.5 42.5l-61 10q-10 13 -8 36.5t18 33.5q166 -6 258 -6q97 0 238 6q14 -9 13.5 -34.5t-17.5 -35.5l-49 -12q-72 -18 -103.5 -44.5t-58.5 -98.5q-48 -123 -101 -295 l-94 -301q-48 -155 -98.5 -256.5t-136.5 -176.5q-70 -63 -181.5 -100t-230.5 -37q-101 0 -181 19t-143.5 60t-98 112.5t-34.5 169.5zM979 1495l321 242q42 32 66 32q34 0 68 -61q30 -53 20 -86t-63 -49l-390 -127q-12 5 -19 19.5t-3 29.5z" />
<glyph unicode="&#xdb;" horiz-adv-x="1497" d="M272 328q0 92 39 217l158 512q17 55 24.5 86t9.5 58.5t-7.5 41t-27.5 22.5t-50 15l-49 8q-16 9 -10 35t28 35q147 -6 297 -6q141 0 285 6q16 -9 12.5 -36.5t-23.5 -33.5l-51 -10q-47 -9 -69 -24t-42 -57t-51 -140l-147 -473q-40 -131 -43 -226q-2 -134 63.5 -207 t200.5 -73q71 0 132.5 26t106 68t83.5 105.5t65 127.5t51 144l91 289q53 172 79 292q18 76 3.5 105.5t-89.5 42.5l-61 10q-10 13 -8 36.5t18 33.5q166 -6 258 -6q97 0 238 6q14 -9 13.5 -34.5t-17.5 -35.5l-49 -12q-72 -18 -103.5 -44.5t-58.5 -98.5q-48 -123 -101 -295 l-94 -301q-48 -155 -98.5 -256.5t-136.5 -176.5q-70 -63 -181.5 -100t-230.5 -37q-101 0 -181 19t-143.5 60t-98 112.5t-34.5 169.5zM803 1462q-8 16 2 35l305 256q25 22 51.5 22t46.5 -22l242 -256q3 -18 -9.5 -33.5t-25.5 -17.5l-244 127q-33 17 -71 0l-273 -127 q-16 0 -24 16z" />
<glyph unicode="&#xdc;" horiz-adv-x="1497" d="M272 328q0 92 39 217l158 512q17 55 24.5 86t9.5 58.5t-7.5 41t-27.5 22.5t-50 15l-49 8q-16 9 -10 35t28 35q147 -6 297 -6q141 0 285 6q16 -9 12.5 -36.5t-23.5 -33.5l-51 -10q-47 -9 -69 -24t-42 -57t-51 -140l-147 -473q-40 -131 -43 -226q-2 -134 63.5 -207 t200.5 -73q71 0 132.5 26t106 68t83.5 105.5t65 127.5t51 144l91 289q53 172 79 292q18 76 3.5 105.5t-89.5 42.5l-61 10q-10 13 -8 36.5t18 33.5q166 -6 258 -6q97 0 238 6q14 -9 13.5 -34.5t-17.5 -35.5l-49 -12q-72 -18 -103.5 -44.5t-58.5 -98.5q-48 -123 -101 -295 l-94 -301q-48 -155 -98.5 -256.5t-136.5 -176.5q-70 -63 -181.5 -100t-230.5 -37q-101 0 -181 19t-143.5 60t-98 112.5t-34.5 169.5zM807 1583q8 53 45 88t88 35q56 0 87 -36t24 -91q-8 -53 -46.5 -87t-93.5 -34q-52 0 -82.5 35t-21.5 90zM1214 1583q8 53 45.5 88t88.5 35 q56 0 86.5 -36t23.5 -91q-8 -53 -46 -87t-93 -34q-52 0 -83 35.5t-22 89.5z" />
<glyph unicode="&#xdd;" horiz-adv-x="1216" d="M224 31.5q1 28.5 18 34.5l82 12q48 6 70 21.5t41.5 55.5t51.5 140l29 90q25 77 28 136t-9 120q-9 58 -84 465q-17 98 -36.5 132.5t-76.5 41.5l-45 6q-13 13 -8.5 39.5t22.5 32.5q163 -6 275 -6q127 0 268 6q18 -7 17 -35.5t-15 -36.5l-76 -14q-65 -13 -65 -45 q0 -31 12 -117q33 -239 80 -444l287 356q153 189 153 213t-43 33l-74 18q-15 10 -11.5 37.5t22.5 34.5q173 -6 256 -6q119 0 196 6q17 -6 16 -34.5t-18 -37.5l-51 -8q-55 -9 -89 -31.5t-104 -95.5q-149 -158 -385 -446q-68 -81 -95 -131t-52 -130l-47 -149 q-17 -54 -25 -85.5t-10 -58.5t8 -40.5t28 -22t50 -12.5l76 -10q9 -9 5 -36t-17 -36q-193 6 -332 6q-125 0 -309 -6q-15 9 -14 37.5zM838 1495l321 242q42 32 66 32q33 0 67 -61q30 -54 21 -86q-4 -13 -20 -27t-44 -22l-389 -127q-12 5 -19 19.5t-3 29.5z" />
<glyph unicode="&#xde;" horiz-adv-x="1232" d="M-1.5 31.5q1.5 28.5 19.5 34.5l64 10q37 6 55 13t37.5 31t34 62t37.5 113l239 762q17 55 24.5 85.5t9.5 58t-7.5 40.5t-27.5 22t-50 15l-49 8q-17 12 -11.5 39t25.5 33q159 -6 310 -6q140 0 278 6q16 -9 13 -37.5t-23 -34.5l-49 -8q-36 -6 -54.5 -13t-37 -29.5t-32 -56.5 t-34.5 -102h84q197 0 315 -86q123 -87 123 -254q0 -126 -75 -218t-197.5 -136.5t-276.5 -44.5q-47 0 -59 2q-13 10 -14.5 27t12.5 30q49 12 102 39q69 37 118 94.5t72 120t23 125.5q0 105 -54.5 156t-135.5 51q-47 0 -59.5 -7t-24.5 -46l-201 -635q-17 -54 -25 -85.5 t-10 -58t8 -40t28 -22t50 -13.5l68 -10q8 -8 4 -36t-18 -36q-179 6 -318 6q-144 0 -297 -6q-15 9 -13.5 37.5z" />
<glyph unicode="&#xdf;" horiz-adv-x="1077" d="M-315 -395q0 52 36 86.5t82 34.5q20 0 31.5 -9.5t24.5 -33.5q36 -66 68.5 -100t52.5 -34q12 0 20.5 13t23.5 64.5t36 149.5t55 273q52 268 94.5 439.5t99.5 330.5q133 367 400 541q162 104 364 104q160 0 242 -62t82 -169q0 -40 -20.5 -78t-47.5 -64.5t-74 -55.5 t-78.5 -45t-83.5 -40t-69 -32q-115 -58 -115 -164q0 -9 1 -18.5t4 -21.5t5 -20.5t7.5 -23.5t8 -22t10 -25t9.5 -23t11 -25.5t10 -23.5q51 -115 51 -215q0 -77 -39 -149t-106 -128q-107 -88 -215 -88q-75 0 -116.5 42t-41.5 91q0 52 39 91q13 11 29.5 13t21.5 -5 q87 -105 145 -105q29 0 55.5 15.5t26.5 54.5q0 53 -86 225q-73 146 -73 246q0 107 62.5 178.5t203.5 149.5q109 60 155 134.5t46 141.5q0 62 -38 96.5t-81 34.5q-121 0 -238.5 -147t-210.5 -412q-57 -167 -116 -416.5t-105 -441t-84 -266.5q-58 -115 -154.5 -178.5 t-209.5 -63.5q-82 0 -146.5 41t-64.5 115z" />
<glyph unicode="&#xe0;" horiz-adv-x="1034" d="M39 98q0 98 87.5 262t219.5 283q196 176 365 176q16 0 42.5 -13t47.5 -34l47 96q22 15 55 15q35 0 76 -13q26 -7 47 -22.5t29 -30.5q-158 -391 -246 -647q-13 -43 4 -43q23 0 85.5 40t107.5 87q16 0 27.5 -12t10.5 -33q-70 -98 -187.5 -169t-221.5 -71q-37 0 -58.5 26 t-21.5 54q0 23 23 86l61 158h-8q-99 -131 -230 -226.5t-237 -95.5q-48 0 -86.5 38.5t-38.5 88.5zM326 158q3 -33 28 -33q31 0 98.5 66t120.5 137q51 68 104.5 166.5t74.5 156.5q-33 78 -86 78q-54 0 -138 -106q-80 -101 -141 -232.5t-61 -214.5v-18zM535 1276q0 30 61 70 q44 30 82 30q35 0 53 -59l109 -361q-1 -18 -17 -26.5t-37 -5.5l-221 276q-33 44 -30 76z" />
<glyph unicode="&#xe1;" horiz-adv-x="1034" d="M39 98q0 98 87.5 262t219.5 283q196 176 365 176q16 0 42.5 -13t47.5 -34l47 96q22 15 55 15q35 0 76 -13q26 -7 47 -22.5t29 -30.5q-158 -391 -246 -647q-13 -43 4 -43q23 0 85.5 40t107.5 87q16 0 27.5 -12t10.5 -33q-70 -98 -187.5 -169t-221.5 -71q-37 0 -58.5 26 t-21.5 54q0 23 23 86l61 158h-8q-99 -131 -230 -226.5t-237 -95.5q-48 0 -86.5 38.5t-38.5 88.5zM326 158q3 -33 28 -33q31 0 98.5 66t120.5 137q51 68 104.5 166.5t74.5 156.5q-33 78 -86 78q-54 0 -138 -106q-80 -101 -141 -232.5t-61 -214.5v-18zM719 963l211 344 q35 56 67 53q28 -2 74 -37q50 -50 47 -76q-3 -35 -49 -69l-303 -252q-44 -3 -47 37z" />
<glyph unicode="&#xe2;" horiz-adv-x="1034" d="M39 98q0 98 87.5 262t219.5 283q196 176 365 176q16 0 42.5 -13t47.5 -34l47 96q22 15 55 15q35 0 76 -13q26 -7 47 -22.5t29 -30.5q-158 -391 -246 -647q-13 -43 4 -43q23 0 85.5 40t107.5 87q16 0 27.5 -12t10.5 -33q-70 -98 -187.5 -169t-221.5 -71q-37 0 -58.5 26 t-21.5 54q0 23 23 86l61 158h-8q-99 -131 -230 -226.5t-237 -95.5q-48 0 -86.5 38.5t-38.5 88.5zM326 158q3 -33 28 -33q31 0 98.5 66t120.5 137q51 68 104.5 166.5t74.5 156.5q-33 78 -86 78q-54 0 -138 -106q-80 -101 -141 -232.5t-61 -214.5v-18zM537 965l274 387 q18 26 47 26q33 0 41 -26l105 -387q-8 -33 -52 -37l-108 172q-13 21 -21 29t-16 8t-53 -45l-170 -168q-20 0 -33.5 11t-13.5 30z" />
<glyph unicode="&#xe3;" horiz-adv-x="1034" d="M39 98q0 98 87.5 262t219.5 283q196 176 365 176q16 0 42.5 -13t47.5 -34l47 96q22 15 55 15q35 0 76 -13q26 -7 47 -22.5t29 -30.5q-158 -391 -246 -647q-13 -43 4 -43q23 0 85.5 40t107.5 87q16 0 27.5 -12t10.5 -33q-70 -98 -187.5 -169t-221.5 -71q-37 0 -58.5 26 t-21.5 54q0 23 23 86l61 158h-8q-99 -131 -230 -226.5t-237 -95.5q-48 0 -86.5 38.5t-38.5 88.5zM326 158q3 -33 28 -33q31 0 98.5 66t120.5 137q51 68 104.5 166.5t74.5 156.5q-33 78 -86 78q-54 0 -138 -106q-80 -101 -141 -232.5t-61 -214.5v-18zM508 956q12 38 37 95 t47 84q26 32 54.5 44.5t70.5 12.5h114q67 0 102 18.5t58 77.5q12 5 34 2t28 -12q-18 -101 -68 -176q-22 -32 -49 -45t-74 -13h-114q-66 0 -106.5 -25t-70.5 -75q-9 -7 -33 -3t-30 15z" />
<glyph unicode="&#xe4;" horiz-adv-x="1034" d="M39 98q0 98 87.5 262t219.5 283q196 176 365 176q16 0 42.5 -13t47.5 -34l47 96q22 15 55 15q35 0 76 -13q26 -7 47 -22.5t29 -30.5q-158 -391 -246 -647q-13 -43 4 -43q23 0 85.5 40t107.5 87q16 0 27.5 -12t10.5 -33q-70 -98 -187.5 -169t-221.5 -71q-37 0 -58.5 26 t-21.5 54q0 23 23 86l61 158h-8q-99 -131 -230 -226.5t-237 -95.5q-48 0 -86.5 38.5t-38.5 88.5zM326 158q3 -33 28 -33q31 0 98.5 66t120.5 137q51 68 104.5 166.5t74.5 156.5q-33 78 -86 78q-54 0 -138 -106q-80 -101 -141 -232.5t-61 -214.5v-18zM469 1124q8 55 46 90 t93 35q54 0 86 -37t25 -94q-8 -53 -46.5 -87t-92.5 -34q-56 0 -87 35t-24 92zM848 1124q8 55 46.5 90t94.5 35q53 0 85.5 -37t23.5 -94q-9 -53 -47 -87t-93 -34q-56 0 -86.5 35t-23.5 92z" />
<glyph unicode="&#xe5;" horiz-adv-x="1034" d="M39 98q0 98 87.5 262t219.5 283q196 176 365 176q16 0 42.5 -13t47.5 -34l47 96q22 15 55 15q35 0 76 -13q26 -7 47 -22.5t29 -30.5q-158 -391 -246 -647q-13 -43 4 -43q23 0 85.5 40t107.5 87q16 0 27.5 -12t10.5 -33q-70 -98 -187.5 -169t-221.5 -71q-37 0 -58.5 26 t-21.5 54q0 23 23 86l61 158h-8q-99 -131 -230 -226.5t-237 -95.5q-48 0 -86.5 38.5t-38.5 88.5zM326 158q3 -33 28 -33q31 0 98.5 66t120.5 137q51 68 104.5 166.5t74.5 156.5q-33 78 -86 78q-54 0 -138 -106q-80 -101 -141 -232.5t-61 -214.5v-18zM586 1139q0 78 54 134 t144 56t144.5 -56.5t54.5 -133.5q0 -78 -54.5 -135.5t-144.5 -57.5t-144 57.5t-54 135.5zM696 1139q0 -52 23.5 -85.5t64.5 -33.5t64.5 33.5t23.5 85.5q0 51 -23.5 85.5t-64.5 37.5q-41 -3 -64.5 -37.5t-23.5 -85.5z" />
<glyph unicode="&#xe6;" horiz-adv-x="1193" d="M37 121q0 74 47 165.5t121 164.5q186 178 512 292q55 32 84.5 48t93 36.5t119.5 20.5q107 0 164 -53t57 -140q0 -104 -100 -189t-355 -206q1 -69 36.5 -108t76.5 -39q92 0 190 116q23 5 39 -3.5t17 -30.5q-44 -90 -148.5 -157t-224.5 -67q-158 0 -207 154 q-79 -62 -187.5 -108t-181.5 -46q-65 0 -109 39t-44 111zM317 174q0 -27 12.5 -42t30.5 -15q61 0 181 86q3 115 33.5 212t105.5 222h-4q-78 -35 -148.5 -100.5t-114.5 -134t-70 -130t-26 -98.5zM776 350q112 82 178 174.5t66 167.5q0 66 -51 66q-44 0 -89 -66t-73.5 -161 t-30.5 -181z" />
<glyph unicode="&#xe7;" horiz-adv-x="776" d="M49 -420q0 28 18.5 47t47.5 19t73 -37t64 -37t36.5 13.5t16.5 37.5q0 46 -34.5 83.5t-90.5 60.5l-8 18l129 188q-4 -2 -12 -2q-99 0 -153 64t-54 174q0 100 50 225t134 219q89 99 184.5 147t184.5 48q92 0 150.5 -42t58.5 -116q0 -57 -41 -93t-98 -36q-37 0 -58.5 20.5 t-23.5 55.5q0 2 -0.5 14t-1 17t-1.5 17t-2 18.5t-3.5 16.5t-5 15.5t-6.5 11.5t-9.5 8.5t-11.5 2.5q-57 0 -127 -129q-101 -191 -101 -373q0 -135 86 -135q90 0 213 131q20 0 33 -13t10 -32q-40 -64 -114.5 -124.5t-157.5 -86.5l-74 -102q-11 -15 -8 -24t25 -24 q98 -77 98 -168q0 -82 -77.5 -135t-180.5 -53q-76 0 -117 23t-41 67z" />
<glyph unicode="&#xe8;" horiz-adv-x="821" d="M82 207q0 138 77 284t199 238q156 119 322 119q88 0 143.5 -47.5t55.5 -116.5q0 -44 -21 -84t-52 -70.5t-79 -59t-91 -48t-100 -39t-92.5 -29.5t-81.5 -22q-10 -31 -10 -99q0 -46 22.5 -79t65.5 -33q57 0 127.5 37t139.5 106q18 0 30 -13.5t11 -33.5 q-74 -116 -191.5 -181t-255.5 -65q-106 0 -162.5 66.5t-56.5 169.5zM379 422q111 31 194 117q30 31 51 82t23 90q0 19 -10.5 33t-28.5 14q-41 0 -88 -53q-51 -55 -88 -135t-53 -148zM428 1276q0 30 61 70q44 30 82 30q36 0 54 -59l108 -361q-1 -18 -16.5 -26.5t-36.5 -5.5 l-221 276q-33 45 -31 76z" />
<glyph unicode="&#xe9;" horiz-adv-x="821" d="M82 207q0 138 77 284t199 238q156 119 322 119q88 0 143.5 -47.5t55.5 -116.5q0 -44 -21 -84t-52 -70.5t-79 -59t-91 -48t-100 -39t-92.5 -29.5t-81.5 -22q-10 -31 -10 -99q0 -46 22.5 -79t65.5 -33q57 0 127.5 37t139.5 106q18 0 30 -13.5t11 -33.5 q-74 -116 -191.5 -181t-255.5 -65q-106 0 -162.5 66.5t-56.5 169.5zM379 422q111 31 194 117q30 31 51 82t23 90q0 19 -10.5 33t-28.5 14q-41 0 -88 -53q-51 -55 -88 -135t-53 -148zM580 952l211 344q36 57 67 54q28 -2 74 -37q50 -50 47 -76q-3 -36 -49 -70l-303 -252 q-44 -3 -47 37z" />
<glyph unicode="&#xea;" horiz-adv-x="821" d="M82 207q0 138 77 284t199 238q156 119 322 119q88 0 143.5 -47.5t55.5 -116.5q0 -44 -21 -84t-52 -70.5t-79 -59t-91 -48t-100 -39t-92.5 -29.5t-81.5 -22q-10 -31 -10 -99q0 -46 22.5 -79t65.5 -33q57 0 127.5 37t139.5 106q18 0 30 -13.5t11 -33.5 q-74 -116 -191.5 -181t-255.5 -65q-106 0 -162.5 66.5t-56.5 169.5zM379 422q111 31 194 117q30 31 51 82t23 90q0 19 -10.5 33t-28.5 14q-41 0 -88 -53q-51 -55 -88 -135t-53 -148zM430 989l275 387q19 27 47 27q33 0 41 -27l104 -387q-8 -34 -51 -37l-98 178 q-21 41 -37 41q-9 0 -54 -45l-180 -178q-20 0 -33.5 11t-13.5 30z" />
<glyph unicode="&#xeb;" horiz-adv-x="821" d="M82 207q0 138 77 284t199 238q156 119 322 119q88 0 143.5 -47.5t55.5 -116.5q0 -44 -21 -84t-52 -70.5t-79 -59t-91 -48t-100 -39t-92.5 -29.5t-81.5 -22q-10 -31 -10 -99q0 -46 22.5 -79t65.5 -33q57 0 127.5 37t139.5 106q18 0 30 -13.5t11 -33.5 q-74 -116 -191.5 -181t-255.5 -65q-106 0 -162.5 66.5t-56.5 169.5zM348 1124q8 55 46 90t93 35q54 0 86 -37t25 -94q-8 -53 -46.5 -87t-92.5 -34q-56 0 -87 35t-24 92zM379 422q111 31 194 117q30 31 51 82t23 90q0 19 -10.5 33t-28.5 14q-41 0 -88 -53q-51 -55 -88 -135 t-53 -148zM727 1124q8 55 46.5 90t94.5 35q53 0 85.5 -37t23.5 -94q-9 -54 -46.5 -87.5t-92.5 -33.5q-56 0 -87 35t-24 92z" />
<glyph unicode="&#xec;" horiz-adv-x="632" d="M104 53q0 24 25 88l213 510q11 29 -4 29q-23 0 -86.5 -43.5t-95.5 -73.5q-18 3 -28.5 19t-4.5 30q81 98 204.5 167t207.5 69q34 0 64 -28.5t30 -61.5q0 -20 -27 -90l-213 -502q-14 -31 8 -31q21 0 86.5 45t106.5 84q19 0 31 -14.5t8 -34.5q-69 -91 -191.5 -167.5 t-238.5 -76.5q-36 0 -65.5 30t-29.5 52zM328 1288q0 30 61 70q46 31 82 31q34 0 53 -60l109 -360q-1 -18 -16.5 -27t-36.5 -6l-222 276q-33 44 -30 76z" />
<glyph unicode="&#xed;" horiz-adv-x="632" d="M104 53q0 24 25 88l213 510q11 29 -4 29q-23 0 -86.5 -43.5t-95.5 -73.5q-18 3 -28.5 19t-4.5 30q81 98 204.5 167t207.5 69q34 0 64 -28.5t30 -61.5q0 -20 -27 -90l-213 -502q-14 -31 8 -31q21 0 86.5 45t106.5 84q19 0 31 -14.5t8 -34.5q-69 -91 -191.5 -167.5 t-238.5 -76.5q-36 0 -65.5 30t-29.5 52zM457 958l211 345q35 56 67 53q28 -2 74 -37q50 -50 47 -76q-3 -35 -49 -69l-303 -252q-44 -3 -47 36z" />
<glyph unicode="&#xee;" horiz-adv-x="632" d="M104 53q0 24 25 88l213 510q11 29 -4 29q-23 0 -86.5 -43.5t-95.5 -73.5q-18 3 -28.5 19t-4.5 30q81 98 204.5 167t207.5 69q34 0 64 -28.5t30 -61.5q0 -20 -27 -90l-213 -502q-14 -31 8 -31q21 0 86.5 45t106.5 84q19 0 31 -14.5t8 -34.5q-69 -91 -191.5 -167.5 t-238.5 -76.5q-36 0 -65.5 30t-29.5 52zM276 942l275 387q19 27 47 27q33 0 41 -27l104 -387q-8 -34 -51 -37l-102 168q-24 41 -33 41q-12 0 -57 -45l-176 -168q-20 0 -34 11t-14 30z" />
<glyph unicode="&#xef;" horiz-adv-x="632" d="M104 53q0 24 25 88l213 510q11 29 -4 29q-23 0 -86.5 -43.5t-95.5 -73.5q-18 3 -28.5 19t-4.5 30q81 98 204.5 167t207.5 69q34 0 64 -28.5t30 -61.5q0 -20 -27 -90l-213 -502q-14 -31 8 -31q21 0 86.5 45t106.5 84q19 0 31 -14.5t8 -34.5q-69 -91 -191.5 -167.5 t-238.5 -76.5q-36 0 -65.5 30t-29.5 52zM248 1124q8 55 46 90t93 35q54 0 86 -37t25 -94q-8 -53 -47 -87t-93 -34q-56 0 -86.5 35t-23.5 92zM627 1124q8 55 46.5 90t94.5 35q53 0 85.5 -37t23.5 -94q-9 -53 -47 -87t-93 -34q-56 0 -86.5 35t-23.5 92z" />
<glyph unicode="&#xf0;" horiz-adv-x="954" d="M100 274q2 110 57.5 236.5t149.5 210.5q76 67 156 97t135 30h20q46 0 82 -19q3 59 -8 129.5t-35 120.5l-290 -125q-22 4 -32 41t5 54l281 120q-51 94 -101 144q-70 67 -170 88q-8 10 -3 33t22 30q59 -3 118.5 -18t96.5 -35q119 -64 200 -172l269 115q23 -8 30 -46.5 t-6 -52.5l-235 -100q106 -184 106 -442q0 -155 -51.5 -309t-148.5 -263q-152 -170 -353 -170q-77 0 -135 24t-92.5 66.5t-51.5 96t-16 116.5zM336 154q0 -48 20.5 -70.5t51.5 -22.5q38 0 71.5 33t75.5 105q47 79 94 220.5t47 248.5q0 38 -16 64t-47 26q-48 0 -111 -78 q-59 -77 -122.5 -235.5t-63.5 -290.5z" />
<glyph unicode="&#xf1;" horiz-adv-x="1114" d="M92 604q44 88 159 166t232 78q33 0 52.5 -13t23.5 -34t2 -41.5t-10 -40.5l-96 -252h8q38 53 64 87t67.5 84.5t78 82.5t81 64t92.5 47.5t96 15.5q63 0 96 -36.5t33 -82.5q0 -79 -41 -182q-34 -89 -151 -367q-19 -45 8 -45q22 0 81 46t101 93q18 3 30 -7.5t11 -30.5 q-23 -41 -63.5 -85t-95.5 -85.5t-127 -68t-144 -26.5q-34 0 -61 25.5t-27 54.5q0 35 31 111q130 305 174 428q26 71 26 96q0 29 -26 29q-53 0 -156 -131q-53 -68 -115 -176.5t-102 -189.5t-100 -210q-18 -37 -99 -37q-50 0 -86.5 19t-23.5 63q4 13 46 131t90 254.5t60 169.5 q25 74 -8 74q-29 0 -80 -35t-94 -76q-14 0 -24.5 10t-12.5 23zM502 967q12 38 37 94.5t47 83.5q26 32 54.5 44.5t70.5 12.5h114q67 0 102 18.5t58 77.5q12 5 34 2t28 -12q-18 -101 -68 -176q-22 -32 -49 -44.5t-74 -12.5h-115q-66 0 -106 -25t-70 -76q-9 -7 -33 -2.5 t-30 15.5z" />
<glyph unicode="&#xf2;" horiz-adv-x="958" d="M100 256q2 123 58.5 249.5t156.5 213.5q151 129 320 129q79 0 139 -25.5t94 -69t51 -95t17 -109.5q0 -112 -51.5 -230.5t-139.5 -203.5q-150 -144 -348 -144q-75 0 -134 24t-94 65t-52.5 91t-16.5 105zM336 145q0 -38 17 -61t46 -23q37 0 73 34t79 104q53 89 104.5 228.5 t51.5 244.5q0 86 -58 86q-47 0 -110 -78q-68 -85 -135.5 -243.5t-67.5 -291.5zM487 1274q0 28 62 69q46 31 82 31q35 0 53 -59l109 -361q-1 -18 -17 -26.5t-37 -5.5l-221 276q-33 45 -31 76z" />
<glyph unicode="&#xf3;" horiz-adv-x="958" d="M100 256q2 123 58.5 249.5t156.5 213.5q151 129 320 129q79 0 139 -25.5t94 -69t51 -95t17 -109.5q0 -112 -51.5 -230.5t-139.5 -203.5q-150 -144 -348 -144q-75 0 -134 24t-94 65t-52.5 91t-16.5 105zM336 145q0 -38 17 -61t46 -23q37 0 73 34t79 104q53 89 104.5 228.5 t51.5 244.5q0 86 -58 86q-47 0 -110 -78q-68 -85 -135.5 -243.5t-67.5 -291.5zM602 967l211 344q35 56 68 53q27 -2 73 -37q50 -50 47 -76q-3 -35 -49 -69l-303 -252q-44 -3 -47 37z" />
<glyph unicode="&#xf4;" horiz-adv-x="958" d="M100 256q2 123 58.5 249.5t156.5 213.5q151 129 320 129q79 0 139 -25.5t94 -69t51 -95t17 -109.5q0 -112 -51.5 -230.5t-139.5 -203.5q-150 -144 -348 -144q-75 0 -134 24t-94 65t-52.5 91t-16.5 105zM336 145q0 -38 17 -61t46 -23q37 0 73 34t79 104q53 89 104.5 228.5 t51.5 244.5q0 86 -58 86q-47 0 -110 -78q-68 -85 -135.5 -243.5t-67.5 -291.5zM444 969l275 387q18 26 47 26q33 0 41 -26l104 -387q-8 -34 -51 -37l-102 168q-24 41 -33 41q-12 0 -57 -45l-176 -168q-20 0 -34 11t-14 30z" />
<glyph unicode="&#xf5;" horiz-adv-x="958" d="M100 256q2 123 58.5 249.5t156.5 213.5q151 129 320 129q79 0 139 -25.5t94 -69t51 -95t17 -109.5q0 -112 -51.5 -230.5t-139.5 -203.5q-150 -144 -348 -144q-75 0 -134 24t-94 65t-52.5 91t-16.5 105zM336 145q0 -38 17 -61t46 -23q37 0 73 34t79 104q53 89 104.5 228.5 t51.5 244.5q0 86 -58 86q-47 0 -110 -78q-68 -85 -135.5 -243.5t-67.5 -291.5zM453 965q12 38 37 94.5t47 83.5q26 32 54.5 44.5t70.5 12.5h114q67 0 102 18.5t58 77.5q12 5 33.5 2t27.5 -12q-19 -103 -67 -176q-22 -32 -49 -44.5t-74 -12.5h-115q-66 0 -106 -25t-70 -76 q-9 -7 -33 -2.5t-30 15.5z" />
<glyph unicode="&#xf6;" horiz-adv-x="958" d="M100 256q2 123 58.5 249.5t156.5 213.5q151 129 320 129q79 0 139 -25.5t94 -69t51 -95t17 -109.5q0 -112 -51.5 -230.5t-139.5 -203.5q-150 -144 -348 -144q-75 0 -134 24t-94 65t-52.5 91t-16.5 105zM336 145q0 -38 17 -61t46 -23q37 0 73 34t79 104q53 89 104.5 228.5 t51.5 244.5q0 86 -58 86q-47 0 -110 -78q-68 -85 -135.5 -243.5t-67.5 -291.5zM410 1124q8 55 46 90t93 35q53 0 85 -36.5t25 -94.5q-8 -53 -46.5 -87t-92.5 -34q-56 0 -86.5 35t-23.5 92zM788 1124q8 55 47 90t95 35q52 0 84.5 -37t23.5 -94q-9 -54 -46.5 -87.5 t-92.5 -33.5q-56 0 -87 35t-24 92z" />
<glyph unicode="&#xf7;" d="M143 362v148h822v-148h-822zM430 145q0 51 36.5 87t88.5 36q48 0 84.5 -36.5t36.5 -86.5q0 -52 -36.5 -88.5t-84.5 -36.5q-53 0 -89 36t-36 89zM430 729q0 51 36.5 87t88.5 36q48 0 84.5 -36.5t36.5 -86.5q0 -52 -36.5 -88.5t-84.5 -36.5q-53 0 -89 36t-36 89z" />
<glyph unicode="&#xf8;" horiz-adv-x="958" d="M102 272q2 110 57.5 235.5t155.5 211.5q151 129 322 129q72 0 133 -25l61 82q24 3 42 -7.5t22 -31.5l-61 -82q102 -75 102 -239q0 -108 -53 -226t-142 -204q-150 -144 -338 -144q-75 0 -145 25l-78 -105q-19 -2 -35.5 11t-17.5 37l72 96q-100 85 -97 237zM315 201l4 -4 l386 536q-21 25 -62 25q-62 0 -133 -80q-66 -72 -128.5 -212t-66.5 -265zM336 92q22 -31 61 -31q49 0 92.5 34t90.5 104q50 74 96.5 200t46.5 226l-4 4z" />
<glyph unicode="&#xf9;" horiz-adv-x="1112" d="M106 604q66 88 190 166t232 78q36 0 64.5 -28t28.5 -58q0 -31 -11 -57l-202 -498q-21 -55 16 -55q28 0 78 43q60 51 120.5 129t116 175t91.5 167.5t81 164.5q39 17 76 17q86 0 143 -45q-23 -59 -74 -188t-89 -227.5t-70 -188.5q-19 -58 10 -58q23 0 84 45t103 88 q36 -6 36 -47q-48 -85 -179 -170.5t-251 -85.5q-41 0 -64 30.5t-5 74.5l114 291h-4q-45 -63 -102 -127.5t-124.5 -127t-140 -102t-130.5 -39.5q-51 0 -82 31.5t-31 75.5q0 38 31 121l170 428q8 20 6 36.5t-14 16.5t-28.5 -8t-37.5 -23.5t-39 -29.5t-42 -34.5t-36 -29.5 q-37 13 -35 49zM547 1288q0 30 61 70q46 31 82 31q34 0 53 -60l109 -360q-1 -18 -16.5 -27t-36.5 -6l-221 276q-33 45 -31 76z" />
<glyph unicode="&#xfa;" horiz-adv-x="1112" d="M106 604q66 88 190 166t232 78q36 0 64.5 -28t28.5 -58q0 -31 -11 -57l-202 -498q-21 -55 16 -55q28 0 78 43q60 51 120.5 129t116 175t91.5 167.5t81 164.5q39 17 76 17q86 0 143 -45q-23 -59 -74 -188t-89 -227.5t-70 -188.5q-19 -58 10 -58q23 0 84 45t103 88 q36 -6 36 -47q-48 -85 -179 -170.5t-251 -85.5q-41 0 -64 30.5t-5 74.5l114 291h-4q-45 -63 -102 -127.5t-124.5 -127t-140 -102t-130.5 -39.5q-51 0 -82 31.5t-31 75.5q0 38 31 121l170 428q8 20 6 36.5t-14 16.5t-28.5 -8t-37.5 -23.5t-39 -29.5t-42 -34.5t-36 -29.5 q-37 13 -35 49zM680 969l211 344q35 56 67 53q28 -2 74 -37q50 -50 47 -76q-3 -35 -49 -69l-303 -252q-44 -3 -47 37z" />
<glyph unicode="&#xfb;" horiz-adv-x="1112" d="M106 604q66 88 190 166t232 78q36 0 64.5 -28t28.5 -58q0 -31 -11 -57l-202 -498q-21 -55 16 -55q28 0 78 43q60 51 120.5 129t116 175t91.5 167.5t81 164.5q39 17 76 17q86 0 143 -45q-23 -59 -74 -188t-89 -227.5t-70 -188.5q-19 -58 10 -58q23 0 84 45t103 88 q36 -6 36 -47q-48 -85 -179 -170.5t-251 -85.5q-41 0 -64 30.5t-5 74.5l114 291h-4q-45 -63 -102 -127.5t-124.5 -127t-140 -102t-130.5 -39.5q-51 0 -82 31.5t-31 75.5q0 38 31 121l170 428q8 20 6 36.5t-14 16.5t-28.5 -8t-37.5 -23.5t-39 -29.5t-42 -34.5t-36 -29.5 q-37 13 -35 49zM537 969l274 387q18 26 47 26q33 0 41 -26l105 -387q-8 -33 -52 -37l-102 168q-24 41 -33 41q-12 0 -57 -45l-176 -168q-20 0 -33.5 11t-13.5 30z" />
<glyph unicode="&#xfc;" horiz-adv-x="1112" d="M106 604q66 88 190 166t232 78q36 0 64.5 -28t28.5 -58q0 -31 -11 -57l-202 -498q-21 -55 16 -55q28 0 78 43q60 51 120.5 129t116 175t91.5 167.5t81 164.5q39 17 76 17q86 0 143 -45q-23 -59 -74 -188t-89 -227.5t-70 -188.5q-19 -58 10 -58q23 0 84 45t103 88 q36 -6 36 -47q-48 -85 -179 -170.5t-251 -85.5q-41 0 -64 30.5t-5 74.5l114 291h-4q-45 -63 -102 -127.5t-124.5 -127t-140 -102t-130.5 -39.5q-51 0 -82 31.5t-31 75.5q0 38 31 121l170 428q8 20 6 36.5t-14 16.5t-28.5 -8t-37.5 -23.5t-39 -29.5t-42 -34.5t-36 -29.5 q-37 13 -35 49zM469 1124q8 55 46 90t93 35q54 0 86 -37t25 -94q-8 -53 -46.5 -87t-92.5 -34q-56 0 -87 35t-24 92zM848 1124q8 55 46.5 90t94.5 35q53 0 85.5 -37t23.5 -94q-9 -53 -47 -87t-93 -34q-56 0 -86.5 35t-23.5 92z" />
<glyph unicode="&#xfd;" horiz-adv-x="870" d="M-176 -412q-1 57 35 95t88 38q49 0 90 -59q28 -39 48.5 -54.5t45.5 -15.5q34 0 82 54q63 74 86 192q32 163 25 422q-5 200 -23 303t-57 103q-28 0 -65 -53t-64 -113q-13 -12 -37.5 -6.5t-30.5 22.5q14 41 30.5 78.5t45.5 86.5t61 83.5t78.5 59t97.5 24.5q85 0 132 -85 t51 -286q3 -226 -17 -420h6q135 262 187 580q18 104 20 125q6 47 23 66.5t47 19.5q52 0 90 -23t39 -69q0 -21 -22 -94.5t-73 -197t-114 -237.5q-241 -430 -389 -585q-182 -193 -358 -193q-61 0 -109 37.5t-49 101.5zM535 954l210 344q36 57 68 54q28 -2 74 -37 q50 -50 47 -76q-3 -36 -49 -70l-303 -251q-44 -3 -47 36z" />
<glyph unicode="&#xfe;" horiz-adv-x="1040" d="M-226.5 -508.5q-2.5 25.5 11.5 37.5l65 10q63 10 90.5 44.5t63.5 140.5l324 950q-35 -7 -100.5 -35t-112.5 -53q-19 3 -27 23.5t2 35.5q27 31 119.5 78t152.5 63l113 326q19 55 16.5 78.5t-30.5 38.5l-58 33q-11 30 11 49q49 20 174.5 43t202.5 26q20 -3 20 -20 q-13 -38 -27.5 -78.5t-34.5 -95.5t-34 -94l-99 -279q37 6 58 6q93 0 161.5 -23.5t107 -66.5t56 -95t17.5 -116q0 -85 -43.5 -186t-110.5 -170q-187 -191 -422 -191q-36 0 -84 21q-18 -3 -28 -35l-92 -272q-10 -29 -13 -48.5t0.5 -37.5t19.5 -28t44 -13l86 -9q19 -7 15.5 -35 t-26.5 -34h-145q-143 0 -422 -23q-19 9 -21.5 34.5zM403 178q-18 -55 11 -84q29 -33 63 -33q21 0 54 20.5t67 61.5q68 79 112 190.5t44 211.5q0 85 -39 126.5t-97 41.5q-8 0 -32 -4z" />
<glyph unicode="&#xff;" horiz-adv-x="870" d="M-176 -412q-1 57 35 95t88 38q49 0 90 -59q28 -39 48.5 -54.5t45.5 -15.5q34 0 82 54q63 74 86 192q32 163 25 422q-5 200 -23 303t-57 103q-28 0 -65 -53t-64 -113q-13 -12 -37.5 -6.5t-30.5 22.5q14 41 30.5 78.5t45.5 86.5t61 83.5t78.5 59t97.5 24.5q85 0 132 -85 t51 -286q3 -226 -17 -420h6q135 262 187 580q18 104 20 125q6 47 23 66.5t47 19.5q52 0 90 -23t39 -69q0 -21 -22 -94.5t-73 -197t-114 -237.5q-241 -430 -389 -585q-182 -193 -358 -193q-61 0 -109 37.5t-49 101.5zM322 1126q8 55 46 90t93 35q53 0 85 -36.5t25 -94.5 q-8 -53 -46.5 -87t-92.5 -34q-56 0 -86.5 35t-23.5 92zM700 1126q8 55 47 90t95 35q52 0 84.5 -37t23.5 -94q-9 -54 -46.5 -87.5t-92.5 -33.5q-56 0 -87 35t-24 92z" />
<glyph unicode="&#x152;" horiz-adv-x="2088" d="M211 535q0 377 303 616q131 105 309 159t383 54q143 0 248 -6q13 0 84 -3t107 -3h366q233 0 279 6q-58 -144 -105 -322q-7 -17 -37.5 -19t-40.5 11q9 106 -8 158q-24 71 -172 71h-160q-53 0 -67 -11.5t-33 -69.5l-113 -357q-13 -43 -7 -52t46 -9h136q80 0 113 20.5 t73 93.5l27 50q15 13 43.5 12.5t33.5 -14.5q-11 -28 -23 -63.5t-27 -81t-25 -73.5q-19 -59 -62 -217q-12 -12 -42 -13t-36 11l6 52q9 73 -12.5 93.5t-101.5 20.5h-135q-40 0 -53 -10t-25 -51l-78 -250q-46 -142 -29 -193q9 -28 51 -39.5t150 -11.5q45 0 71 1t60 5.5t56 14 t51 26t55 42.5t57.5 62t67.5 85q17 13 45 9t37 -22q-28 -80 -77 -181.5t-81 -141.5q-126 4 -231 4q-86 2 -263 2h-174q-91 0 -180 -6q-20 -1 -55.5 -2.5t-64.5 -2.5t-54 -1q-155 0 -277.5 34.5t-197.5 88.5t-124 128t-68 146.5t-19 149.5zM510 485q0 -190 96 -296.5 t285 -106.5q84 0 134 35t79 131l276 893q14 46 8.5 69.5t-34.5 38.5q-41 21 -121 21q-112 0 -213.5 -35t-179 -95t-141.5 -138t-104.5 -166t-62.5 -177.5t-22 -173.5z" />
<glyph unicode="&#x153;" horiz-adv-x="1335" d="M102 272q2 111 57.5 235.5t157.5 211.5q151 129 322 129q79 0 138 -40.5t79 -113.5q9 12 35 33q152 121 303 121q88 0 143.5 -47.5t55.5 -116.5q0 -44 -20.5 -84t-51.5 -70.5t-79.5 -59.5t-90.5 -48t-99 -38.5t-92 -29.5t-81 -22q-11 -34 -11 -99q0 -45 22.5 -78.5 t63.5 -33.5q57 0 127.5 37t139.5 106q18 0 30 -13.5t11 -33.5q-73 -114 -186.5 -180t-233.5 -66q-64 0 -108.5 35.5t-63.5 102.5q-138 -138 -295 -138q-130 0 -202.5 84t-70.5 217zM338 145q0 -42 17.5 -63t45.5 -21q37 0 72 33.5t78 104.5q53 89 104.5 228.5t51.5 244.5 q0 86 -54 86q-49 0 -112 -78q-68 -85 -135.5 -243.5t-67.5 -291.5zM895 422q106 21 192 117q30 31 51 82t23 90q0 18 -10.5 32.5t-26.5 14.5q-43 0 -90 -53q-52 -56 -89.5 -137.5t-49.5 -145.5z" />
<glyph unicode="&#x178;" horiz-adv-x="1216" d="M224 31.5q1 28.5 18 34.5l82 12q48 6 70 21.5t41.5 55.5t51.5 140l29 90q25 77 28 136t-9 120q-9 58 -84 465q-17 98 -36.5 132.5t-76.5 41.5l-45 6q-13 13 -8.5 39.5t22.5 32.5q163 -6 275 -6q127 0 268 6q18 -7 17 -35.5t-15 -36.5l-76 -14q-65 -13 -65 -45 q0 -31 12 -117q33 -239 80 -444l287 356q153 189 153 213t-43 33l-74 18q-15 10 -11.5 37.5t22.5 34.5q173 -6 256 -6q119 0 196 6q17 -6 16 -34.5t-18 -37.5l-51 -8q-55 -9 -89 -31.5t-104 -95.5q-149 -158 -385 -446q-68 -81 -95 -131t-52 -130l-47 -149 q-17 -54 -25 -85.5t-10 -58.5t8 -40.5t28 -22t50 -12.5l76 -10q9 -9 5 -36t-17 -36q-193 6 -332 6q-125 0 -309 -6q-15 9 -14 37.5zM645 1583q8 53 45 88t88 35q56 0 87 -36t24 -91q-8 -53 -46 -87t-93 -34q-52 0 -83 35.5t-22 89.5zM1053 1583q8 53 45 88t88 35 q56 0 86.5 -36t23.5 -91q-8 -53 -46 -87t-93 -34q-52 0 -82.5 35t-21.5 90z" />
<glyph unicode="&#x2c6;" horiz-adv-x="778" d="M451 969l274 387q18 26 47 26q33 0 41 -26l105 -387q-8 -33 -52 -37l-106 166q-24 41 -39 41q-8 0 -53 -45l-170 -166q-20 0 -33.5 11t-13.5 30z" />
<glyph unicode="&#x2dc;" horiz-adv-x="778" d="M399 977q12 38 37 94.5t47 83.5q26 32 54.5 44.5t70.5 12.5h115q67 0 102 19t58 78q12 5 33.5 1.5t27.5 -12.5q-19 -103 -67 -176q-22 -32 -49 -44.5t-74 -12.5h-115q-66 0 -106 -25t-70 -75q-9 -7 -33.5 -3t-30.5 15z" />
<glyph unicode="&#x2000;" horiz-adv-x="907" />
<glyph unicode="&#x2001;" horiz-adv-x="1815" />
<glyph unicode="&#x2002;" horiz-adv-x="907" />
<glyph unicode="&#x2003;" horiz-adv-x="1815" />
<glyph unicode="&#x2004;" horiz-adv-x="605" />
<glyph unicode="&#x2005;" horiz-adv-x="453" />
<glyph unicode="&#x2006;" horiz-adv-x="302" />
<glyph unicode="&#x2007;" horiz-adv-x="302" />
<glyph unicode="&#x2008;" horiz-adv-x="226" />
<glyph unicode="&#x2009;" horiz-adv-x="363" />
<glyph unicode="&#x200a;" horiz-adv-x="100" />
<glyph unicode="&#x2010;" horiz-adv-x="655" d="M98 401q0 45 31 84l489 45q29 -32 29 -86q0 -46 -26 -79l-492 -46q-31 31 -31 82z" />
<glyph unicode="&#x2011;" horiz-adv-x="655" d="M98 401q0 45 31 84l489 45q29 -32 29 -86q0 -46 -26 -79l-492 -46q-31 31 -31 82z" />
<glyph unicode="&#x2012;" horiz-adv-x="655" d="M98 401q0 45 31 84l489 45q29 -32 29 -86q0 -46 -26 -79l-492 -46q-31 31 -31 82z" />
<glyph unicode="&#x2013;" horiz-adv-x="1024" d="M8 354l37 142h1024l-37 -142h-1024z" />
<glyph unicode="&#x2014;" horiz-adv-x="2048" d="M8 354l37 142h2048l-37 -142h-2048z" />
<glyph unicode="&#x2018;" horiz-adv-x="536" d="M348 1090q0 122 106.5 218t280.5 138q21 -7 27 -29t-6 -41q-84 -24 -144.5 -80t-60.5 -116q0 -61 65 -97q39 -19 39 -75q0 -52 -38.5 -91.5t-94.5 -39.5q-65 0 -119.5 55.5t-54.5 157.5z" />
<glyph unicode="&#x2019;" horiz-adv-x="536" d="M303 893q-6 22 6 41q84 24 144.5 80t60.5 116q0 61 -65 97q-39 19 -39 76q0 52 38.5 91.5t94.5 39.5q65 0 119.5 -55.5t54.5 -157.5q0 -122 -107 -218.5t-280 -138.5q-21 7 -27 29z" />
<glyph unicode="&#x201a;" horiz-adv-x="536" d="M-29 -213q-6 22 6 41q84 24 144.5 80.5t60.5 116.5t-65 96q-39 19 -39 76q0 52 38.5 91.5t94.5 39.5q65 0 119.5 -55.5t54.5 -157.5q0 -122 -107 -218.5t-280 -138.5q-21 7 -27 29z" />
<glyph unicode="&#x201c;" horiz-adv-x="983" d="M350 1090q0 122 106.5 218t280.5 138q21 -7 27 -29t-6 -41q-84 -24 -144.5 -80t-60.5 -116q0 -61 65 -97q39 -19 39 -75q0 -52 -38.5 -91.5t-94.5 -39.5q-65 0 -119.5 55.5t-54.5 157.5zM793 1090q0 122 106.5 218t280.5 138q21 -7 27 -29t-7 -41q-84 -24 -144.5 -80 t-60.5 -116t66 -97q39 -19 39 -75q0 -52 -38.5 -91.5t-94.5 -39.5q-65 0 -119.5 55.5t-54.5 157.5z" />
<glyph unicode="&#x201d;" horiz-adv-x="983" d="M301 893q-6 22 6 41q84 24 144.5 80t60.5 116t-66 97q-38 18 -38 76q0 52 38.5 91.5t94.5 39.5q65 0 119.5 -55.5t54.5 -157.5q0 -122 -107 -218.5t-280 -138.5q-21 7 -27 29zM743 893q-6 22 7 41q84 24 144 80t60 116q0 61 -65 97q-39 19 -39 76q0 52 38.5 91.5 t94.5 39.5q65 0 119.5 -55.5t54.5 -157.5q0 -122 -107 -218.5t-280 -138.5q-21 7 -27 29z" />
<glyph unicode="&#x201e;" horiz-adv-x="983" d="M-27 -213q-6 22 7 41q84 24 144 80.5t60 116.5t-65 96q-39 19 -39 76q0 52 38.5 91.5t94.5 39.5q65 0 119.5 -55.5t54.5 -157.5q0 -122 -107 -218.5t-280 -138.5q-21 7 -27 29zM415 -213q-6 22 7 41q84 24 144.5 80.5t60.5 116.5q0 59 -66 96q-39 19 -39 76 q0 52 38.5 91.5t94.5 39.5q65 0 119.5 -55.5t54.5 -157.5q0 -122 -107 -218.5t-280 -138.5q-21 7 -27 29z" />
<glyph unicode="&#x2022;" horiz-adv-x="847" d="M242 688q0 134 92 227t225 93q132 0 226 -93.5t94 -226.5q0 -134 -93.5 -227.5t-226.5 -93.5q-131 0 -224 92.5t-93 228.5z" />
<glyph unicode="&#x2026;" horiz-adv-x="2048" d="M119 115q0 75 50.5 133.5t127.5 58.5q62 0 99.5 -40.5t37.5 -110.5q0 -77 -50 -131t-124 -54q-61 0 -101 39t-40 105zM801 115q0 75 50.5 133.5t127.5 58.5q62 0 99.5 -40.5t37.5 -110.5q0 -77 -50 -131t-124 -54q-61 0 -101 39t-40 105zM1483 115q0 75 50.5 133.5 t127.5 58.5q62 0 99.5 -40.5t37.5 -110.5q0 -77 -50 -131t-124 -54q-61 0 -101 39t-40 105z" />
<glyph unicode="&#x202f;" horiz-adv-x="363" />
<glyph unicode="&#x2039;" horiz-adv-x="598" d="M147 389q-28 37 15 74q116 106 373 354q45 0 51 -35l-226 -325q-17 -29 -10 -58l94 -333q-11 -36 -53 -33q-158 237 -244 356z" />
<glyph unicode="&#x203a;" horiz-adv-x="598" d="M94 68l225 325q18 30 11 58l-94 333q11 36 53 33q170 -255 243 -356q28 -38 -14 -74q-116 -106 -373 -354q-45 0 -51 35z" />
<glyph unicode="&#x205f;" horiz-adv-x="453" />
<glyph unicode="&#x20ac;" d="M160.5 552.5q7.5 27.5 29.5 41.5h93q4 39 20 108h-100q-9 22 -1 50.5t31 42.5h97q60 163 175 283.5t247 178.5t266 58q69 0 146 -17t124 -41q-51 -124 -92 -301q-8 -17 -36 -17t-34 17q19 118 -17.5 193.5t-113.5 75.5q-111 0 -223 -127.5t-160 -302.5h459 q10 -14 1.5 -42.5t-32.5 -50.5h-452q-14 -57 -19 -108h394q9 -14 1 -42t-30 -50h-373q-10 -92 -10 -146q0 -156 46 -225.5t112 -69.5q78 0 143 58t145 198q17 11 41 3.5t27 -23.5q-26 -80 -59.5 -161t-55.5 -118q-145 -47 -280 -47q-129 0 -219.5 67t-133.5 182.5t-43 271.5 v10h-112q-9 23 -1.5 50.5z" />
<glyph unicode="&#x2122;" horiz-adv-x="1454" d="M389 1231q15 93 29 145q3 8 15.5 8t15.5 -8q13 -17 22.5 -20.5t40.5 -3.5h260q18 0 24.5 0.5t16 6t21.5 17.5q4 8 15.5 8t14.5 -8q-14 -63 -10 -151q-3 -13 -19.5 -14t-19.5 10q-8 39 -25 57t-55 18h-26q-12 0 -14.5 -3.5t-2.5 -20.5v-205q0 -50 6 -68t31 -22l33 -6 q6 -5 5 -22t-7 -19q-45 2 -148 2q-81 0 -118 -2q-6 3 -6.5 18.5t4.5 22.5l32 6q23 4 30 25t7 71v199q0 18 -2.5 21t-19.5 3h-17q-67 0 -92 -71q-4 -11 -22 -8.5t-19 14.5zM908.5 949q-0.5 16 2.5 22l13 2q28 4 38.5 15t12.5 34q18 171 18 229q0 29 -12 42t-37 16l-16 4 q-12 5 -11 22t13 19q19 0 45 -1t37 -1q61 0 135 2q0 -23 47 -115l39 -76q15 -30 24 -30q11 0 25 24l35 76q33 71 47 121q63 -2 98 -2q78 0 103 2q9 -1 9.5 -19.5t-7.5 -21.5l-21 -4q-25 -4 -32 -14t-7 -35q0 -136 6 -222q3 -34 8 -44t21 -15l31 -8q9 -3 9 -20.5t-9 -20.5 q-29 2 -125 2q-82 0 -113 -2q-5 3 -5.5 20.5t5.5 20.5l31 8q18 4 21.5 13t3.5 36l-5 201q0 20 -4 22q-2 0 -39 -88l-38 -90q-50 -117 -58 -143q-32 -11 -51 2q-4 15 -12.5 37.5t-20 50t-14.5 35.5l-47 112q-40 93 -47 97q-2 -5 -8 -107v-125q2 -34 9 -45t31 -14l19 -2 q3 -5 3 -19t-3 -22q-20 2 -96 2q-74 0 -97 -2q-4 3 -4.5 19z" />
<glyph unicode="&#xe000;" horiz-adv-x="849" d="M0 0v850h850v-850h-850z" />
<glyph unicode="&#xfb01;" horiz-adv-x="1138" d="M-336 -393q0 49 36 85t79 36t57 -43q36 -65 70 -100.5t53 -35.5q17 0 33.5 37t44.5 138q191 705 266 989h-194q-9 33 2 65.5t30 40.5h193q70 213 149 346q86 142 209.5 220.5t268.5 78.5q130 0 210 -61.5t80 -140.5q-1 -71 -47 -108.5t-102 -37.5q-51 0 -73.5 23.5 t-22.5 54.5q-3 180 -95 180q-42 0 -80 -35.5t-79 -107.5q-69 -118 -160 -412h143q59 0 197 15q100 14 129 14q31 0 47 -24.5t16 -53.5q0 -37 -26 -100l-199 -504q-14 -31 8 -31q21 0 86.5 45t106.5 84q19 0 31 -14.5t8 -34.5q-68 -91 -190 -167.5t-236 -76.5q-36 0 -67.5 30 t-31.5 52q0 24 25 88l188 484q16 36 12.5 55.5t-16.5 26t-41 6.5h-221q-34 -109 -105.5 -358t-115.5 -380q-84 -252 -145 -344q-51 -76 -139 -129t-185 -53q-50 0 -95.5 16t-78.5 53.5t-33 88.5z" />
<glyph unicode="&#xfb02;" horiz-adv-x="1140" d="M-336 -393q0 49 36 85t79 36t57 -43q36 -65 70 -100.5t53 -35.5q17 0 33.5 37t44.5 138q232 854 268 989h-192q-10 31 0 64.5t30 41.5h193q64 206 141 336q187 309 488 309q130 0 200 -61q109 50 172 61q21 -3 21 -20q-10 -29 -28.5 -78t-35 -94.5t-32.5 -93.5l-338 -975 q-8 -23 -12 -39t-5 -29t3.5 -19.5t15.5 -6.5q30 0 95.5 60.5t117.5 121.5q18 2 30 -11.5t9 -33.5q-141 -275 -404 -275q-71 0 -102 26t-31 62q0 40 29 123l184 531h-293q-37 -117 -108.5 -364t-112.5 -374q-84 -252 -145 -344q-51 -76 -139 -129t-185 -53q-50 0 -95.5 16 t-78.5 53.5t-33 88.5zM590 819h301l131 379q26 76 2 126t-84 50q-45 0 -96.5 -39.5t-98.5 -117.5q-41 -69 -85.5 -188t-69.5 -210z" />
</font>
</defs>
</svg>
