<?xml version="1.0" standalone="no"?>
<!DOCTYPE svg PUBLIC "-//W3C//DTD SVG 1.1//EN" "http://www.w3.org/Graphics/SVG/1.1/DTD/svg11.dtd" >
<svg xmlns="http://www.w3.org/2000/svg">
<metadata></metadata>
<defs>
<font id="adobe_garamond_pro_boldRg" horiz-adv-x="1064" >
<font-face units-per-em="2048" ascent="1485" descent="-563" />
<missing-glyph horiz-adv-x="491" />
<glyph unicode="&#xfb03;" horiz-adv-x="1732" d="M33.5 736q-2.5 21 5.5 28l88 45q23 12 34 23t11 30q0 48 14 135.5t43 151.5q25 55 60.5 100t86 84t121 60.5t154.5 21.5q73 0 141.5 -17.5t106.5 -54.5q46 46 132.5 83.5t207.5 37.5q152 0 246 -60.5t94 -150.5q0 -61 -42.5 -97t-102.5 -36q-30 0 -55.5 11.5t-37.5 31.5 q-8 13 -27 52t-28 55q-30 51 -59.5 71.5t-67.5 20.5q-28 0 -52 -17t-46.5 -56.5t-35.5 -117t-13 -186.5v-115q0 -38 7.5 -44.5t45.5 -6.5h158q263 0 338 17q13 0 23 -8.5t11 -22.5q-10 -110 -10 -236v-331q0 -78 5.5 -110t20 -45t50.5 -17l33 -5q12 -9 11.5 -33.5 t-13.5 -33.5q-94 6 -240 6q-126 0 -225 -6q-13 9 -13.5 33.5t11.5 33.5l32 5q28 3 40 16t17 46.5t5 109.5v292q0 122 -16.5 150.5t-90.5 28.5h-147q-37 0 -45 -8.5t-8 -49.5v-413q0 -78 5 -109.5t19.5 -44.5t50.5 -18l27 -5q12 -9 11.5 -33.5t-13.5 -33.5q-88 6 -238 6 q-122 0 -221 -6q-13 9 -13.5 33.5t11.5 33.5l33 5q28 3 40 16t16.5 46t4.5 110v413q0 41 -7.5 49.5t-43.5 8.5h-202q-36 0 -48 -10t-6 -48v-413q0 -77 5.5 -109t20 -45t50.5 -18l27 -5q12 -9 11.5 -33.5t-13.5 -33.5q-89 6 -238 6q-136 0 -235 -6q-13 9 -14 33.5t11 33.5 l33 5q36 4 50.5 17t20 45t5.5 110v413q0 41 -7.5 49.5t-43.5 8.5h-76q-9 6 -11.5 27zM438 877q0 -41 8 -49.5t46 -8.5h208q29 0 37 8t8 35q0 163 41 303q-8 35 -25 68t-50.5 60.5t-75.5 27.5q-28 0 -53 -10t-52.5 -38.5t-47 -74t-32 -123.5t-12.5 -180v-18z" />
<glyph unicode="&#xfb04;" horiz-adv-x="1732" d="M33.5 736q-2.5 21 5.5 28l88 45q23 12 34 23t11 30q0 48 14 135.5t43 151.5q54 117 157 191.5t263 74.5q68 0 135 -17.5t105 -54.5q40 44 122.5 82.5t186.5 38.5q136 0 223 -61q69 22 135 61q24 0 35 -14q-6 -126 -6 -299v-913q0 -76 5.5 -107t20 -44t50.5 -17l33 -4 q12 -9 11.5 -36t-13.5 -36q-99 6 -240 6q-126 0 -225 -6q-13 9 -13.5 33.5t11.5 33.5l32 5q28 3 40 16t17 46.5t5 109.5v419q0 37 -8.5 44.5t-46.5 7.5h-199q-38 0 -45.5 -8.5t-7.5 -49.5v-413q0 -78 5 -109.5t19.5 -44.5t50.5 -18l27 -5q12 -9 11.5 -33.5t-13.5 -33.5 q-88 6 -238 6q-136 0 -235 -6q-13 9 -13.5 36t11.5 36l33 4q51 6 63 33t12 135v413q0 41 -7.5 49.5t-43.5 8.5h-202q-36 0 -48 -10t-6 -48v-413q0 -77 5.5 -109t20 -45t50.5 -18l27 -5q12 -9 11.5 -33.5t-13.5 -33.5q-89 6 -238 6q-136 0 -235 -6q-13 9 -14 33.5t11 33.5 l33 5q36 4 50.5 17t20 45t5.5 110v413q0 41 -7.5 49.5t-43.5 8.5h-76q-9 6 -11.5 27zM438 877q0 -41 8 -49.5t46 -8.5h208q29 0 37 8t8 35q0 163 41 303q-8 35 -25 68t-50.5 60.5t-75.5 27.5q-28 0 -53 -10t-52.5 -38.5t-47 -74t-32 -123.5t-12.5 -180v-18zM1012 877 q0 -41 7.5 -49.5t45.5 -8.5h199q38 0 46.5 7t8.5 44v330q0 56 -37 111t-100 55q-33 0 -61 -20.5t-53.5 -67t-40.5 -137t-15 -217.5v-47z" />
<glyph horiz-adv-x="2048" />
<glyph horiz-adv-x="2048" />
<glyph unicode="&#xd;" horiz-adv-x="2048" />
<glyph unicode=" "  horiz-adv-x="491" />
<glyph unicode="&#x09;" horiz-adv-x="491" />
<glyph unicode="&#xa0;" horiz-adv-x="491" />
<glyph unicode="!" horiz-adv-x="520" d="M94 137q0 72 48.5 121t117.5 49q71 0 118.5 -51t47.5 -119q0 -71 -46.5 -118.5t-119.5 -47.5q-65 0 -115.5 47t-50.5 119zM96 1235q0 50 39.5 69t124.5 19t124.5 -19t39.5 -69q0 -15 -3.5 -40.5t-13 -86t-16.5 -113.5l-86 -575q-19 -12 -45 -12t-45 12l-86 575 q-7 53 -16.5 113.5t-13 86t-3.5 40.5z" />
<glyph unicode="&#x22;" horiz-adv-x="966" d="M147 1364q0 46 29 58t103 12q73 0 102 -12t29 -58q0 -17 -17 -117l-76 -420q-17 -12 -38.5 -12t-38.5 12l-76 420q-17 100 -17 117zM557 1364q0 46 29 58t102 12t102 -12t29 -58q0 -23 -16 -117l-76 -420q-17 -12 -39 -12t-39 12l-76 420q-16 94 -16 117z" />
<glyph unicode="#" d="M37 379l22 131h213l80 301h-202l24 133h213l88 334h131l-90 -334h195l88 334h133l-90 -334h184l-18 -133h-203l-82 -301h180l-22 -131h-193l-102 -373h-123l98 373h-199l-102 -373h-121l99 373h-201zM397 510h199l80 301h-197z" />
<glyph unicode="$" d="M74 375q11 18 33 19.5t36 -15.5q29 -91 108.5 -174t182.5 -105l55 461l-65 29q-277 120 -277 342q-2 154 114 249.5t314 102.5l19 156q9 15 49 15t49 -15l-18 -158q70 -4 231 -41q13 -40 24 -114.5t11 -151.5q-8 -14 -33 -16.5t-37 10.5q-20 66 -71.5 129.5t-136.5 85.5 l-48 -398l101 -43q49 -21 93 -50.5t87.5 -74t69.5 -108t26 -137.5q0 -164 -126.5 -265.5t-344.5 -107.5l-22 -190q-9 -15 -49.5 -15t-49.5 15l23 194q-97 5 -173 29.5t-110 48.5q-29 30 -47 113t-18 180zM383 1012q0 -108 139 -181l43 359q-88 -6 -135 -55t-47 -123zM532 94 q100 7 151.5 61t51.5 140q0 143 -153 223z" />
<glyph unicode="%" horiz-adv-x="1773" d="M88 913q0 52 10.5 104.5t36 106t62.5 94.5t94 67t127 26t127 -26t94 -67t62.5 -94.5t36 -106t10.5 -104.5q0 -51 -10.5 -103.5t-36 -106t-62.5 -94.5t-94 -67t-127 -26t-127 26t-94 67t-62.5 94.5t-36 106t-10.5 103.5zM291 915q0 -39 2.5 -76t10.5 -83t22 -79t38.5 -56 t57.5 -23q123 0 123 317q0 314 -123 314q-33 0 -57.5 -22.5t-38.5 -55t-22 -77.5t-10.5 -82t-2.5 -77zM457 -33q399 712 757 1372q26 3 56 -10.5t37 -38.5q-431 -769 -758 -1372q-28 -6 -54.5 8.5t-37.5 40.5zM1028 373q0 52 10.5 104.5t36 106t62.5 94.5t94 66.5t127 25.5 t127 -25.5t94 -66.5t62.5 -94.5t36 -106t10.5 -104.5q0 -51 -10.5 -103.5t-36 -106t-62.5 -95t-94 -67.5t-127 -26t-127 26t-94 67.5t-62.5 95t-36 106t-10.5 103.5zM1231 375q0 -51 4.5 -98t17 -101t41 -86.5t68.5 -32.5q123 0 123 318q0 313 -123 313q-33 0 -57.5 -22.5 t-38.5 -55t-22 -77.5t-10.5 -81.5t-2.5 -76.5z" />
<glyph unicode="&#x26;" horiz-adv-x="1689" d="M115 338q0 68 23.5 129t57 102.5t80 77.5t82.5 56t74 36q-59 45 -96 110.5t-37 135.5q0 75 30 138t79 103t109.5 62.5t123.5 22.5q146 0 233 -78t87 -197q0 -30 -6.5 -57t-21.5 -50t-27 -39t-35.5 -34t-34 -25.5t-36 -22.5t-28.5 -17q142 -74 305 -287q63 109 109 217 q51 116 51 143q0 28 -55 37l-37 6q-14 9 -12.5 37.5t18.5 34.5h84q85 0 403 12q17 -6 19 -34t-15 -37l-55 -9q-74 -11 -137 -61q-13 -10 -26.5 -24.5t-31.5 -39.5t-28 -39t-35 -52t-33 -50q-20 -30 -65 -99.5t-57 -86.5q-25 -35 -29 -53h4q0 3 1.5 -0.5t11 -21t22.5 -38.5 q11 -14 34.5 -47.5t37 -51t40 -43.5t50.5 -39t61 -23.5t80 -10.5q50 0 102 18t82 37q12 -4 20 -20.5t5 -30.5q-51 -60 -157 -112t-251 -52q-100 0 -165.5 26t-88.5 62q-1 2 -28 44t-39 69q-52 -49 -88 -78t-88 -61t-111 -47t-127 -15q-200 0 -319 103t-119 264zM387 416 q0 -127 80 -203t197 -76q43 0 84.5 13t69.5 31t50 37t32.5 32t10.5 16q0 5 -32 60q-56 94 -141.5 175.5t-164.5 131.5q-8 5 -20.5 14t-18 12t-10.5 3q-4 0 -18 -9.5t-34.5 -30.5t-39 -48.5t-32 -69.5t-13.5 -88zM522 1071q0 -50 22 -94t52 -69.5t52 -39.5t32 -16q22 9 55 72 t33 141q0 63 -32 109.5t-91 46.5q-53 0 -88 -43t-35 -107z" />
<glyph unicode="'" horiz-adv-x="518" d="M129 1364q0 46 29 58t102 12t102 -12t29 -58q0 -23 -16 -117l-76 -420q-17 -12 -39 -12t-39 12l-76 420q-16 94 -16 117z" />
<glyph unicode="(" horiz-adv-x="696" d="M172 553q0 179 49.5 345.5t157.5 312t262 229.5q35 -3 35 -39q-155 -140 -230 -371t-75 -477t75 -477t230 -371q0 -36 -35 -39q-154 84 -262 229.5t-157.5 312t-49.5 345.5z" />
<glyph unicode=")" horiz-adv-x="696" d="M20 -295q155 140 230.5 371t75.5 477t-75.5 477t-230.5 371q0 36 35 39q154 -84 262 -229.5t157.5 -312t49.5 -345.5t-49.5 -345.5t-157.5 -312t-262 -229.5q-35 3 -35 39z" />
<glyph unicode="*" horiz-adv-x="829" d="M70 846l235 166l-235 166q-5 15 3 33.5t23 25.5l260 -133l27 272q12 8 32 8t31 -8l27 -272l254 135q17 -4 26.5 -22.5t6.5 -40.5l-234 -164l232 -160q4 -18 -5 -37t-24 -27l-256 132l-27 -271q-9 -7 -31 -7t-32 7l-27 271l-260 -132q-15 6 -23 24.5t-3 33.5z" />
<glyph unicode="+" d="M123 362v148h321v326h181v-326h319v-148h-319v-362h-181v362h-321z" />
<glyph unicode="," horiz-adv-x="532" d="M79 -249.5q-7 26.5 11 36.5q71 26 126.5 78.5t55.5 120.5q0 101 -118 133q-27 8 -45.5 33t-18.5 59q0 55 43 94t105 39q35 0 70.5 -15t67.5 -45t52.5 -83t20.5 -121q0 -73 -27.5 -135t-75 -105.5t-106 -73t-127.5 -45.5q-27 3 -34 29.5z" />
<glyph unicode="-" horiz-adv-x="671" d="M61 401q0 45 31 84l490 45q28 -31 28 -86q0 -46 -26 -79l-492 -46q-31 31 -31 82z" />
<glyph unicode="." horiz-adv-x="532" d="M100 137q0 72 48.5 121t117.5 49q71 0 118.5 -51t47.5 -119q0 -71 -46.5 -118.5t-119.5 -47.5q-65 0 -115.5 47t-50.5 119z" />
<glyph unicode="/" horiz-adv-x="694" d="M41 -33l428 1417h184l-428 -1417h-184z" />
<glyph unicode="0" d="M59 641q0 98 17 191.5t54.5 181t91.5 153t134 105t176 39.5t176.5 -39.5t134.5 -105t91.5 -153t54.5 -181t17 -191.5q0 -101 -17 -196.5t-54.5 -182t-92 -151t-134.5 -102.5t-176 -38t-176 38t-134 102.5t-91.5 151t-54.5 182t-17 196.5zM358 641q0 -54 2 -106.5 t8 -122.5t18.5 -127.5t31 -109t48 -80.5t66.5 -29t67 29t48 80.5t31 109t18.5 127t8 122.5t2.5 107t-2.5 107t-8 122.5t-18.5 127.5t-31 109.5t-48 80.5t-67 29t-66.5 -29t-48 -80.5t-31 -109.5t-18.5 -128t-8 -122.5t-2 -106.5z" />
<glyph unicode="1" d="M196.5 27.5q-1.5 29.5 12.5 38.5l84 6q53 4 75 18.5t30 51t8 122.5v670q0 105 -16.5 137t-82.5 41l-94 12q-13 7 -14.5 35t10.5 37q120 17 262 57q38 11 81.5 28t69 27.5t31.5 10.5q23 0 29 -23q-6 -70 -6 -243v-789q0 -66 3 -99t16 -55t33 -28.5t60 -9.5l84 -6 q14 -9 12.5 -38.5t-16.5 -33.5q-111 6 -323 6q-221 0 -332 -6q-15 4 -16.5 33.5z" />
<glyph unicode="2" d="M41 39q189 174 317 315q127 140 198 269t71 278q0 108 -61.5 179t-162.5 71q-154 0 -264 -188q-19 -13 -41.5 -4.5t-25.5 32.5q62 152 190 236t281 84q176 0 281.5 -99.5t105.5 -248.5q0 -122 -64 -229t-245 -277l-99 -92q-108 -101 -108 -129q0 -25 39 -25h247 q117 0 154 17t80 96q10 12 37 9t33 -22q-13 -92 -43.5 -185.5t-57.5 -131.5q-123 6 -287 6h-325q-177 0 -230 -6q-13 3 -18 16.5t-2 28.5z" />
<glyph unicode="3" d="M55 31q0 45 32.5 78.5t90.5 33.5q13 0 26.5 -4t23.5 -9t21 -14.5t18 -16t16.5 -18.5t13 -17.5l10.5 -16.5t8 -12q32 -47 88 -47q28 0 62.5 13.5t72 44t69 72t51.5 104t20 134.5q0 138 -66 226t-174 88q-109 0 -202 -86q-32 6 -46.5 35t-1.5 63q239 90 330 166 q86 72 86 184q0 59 -47.5 104.5t-120.5 45.5q-70 0 -136.5 -48t-115.5 -122q-21 -6 -39 7t-18 32q61 123 175 191.5t253 68.5q149 0 237.5 -66t88.5 -170q0 -35 -9.5 -64t-35.5 -62.5t-79 -68t-134 -69.5q-21 -9 -7 -20q9 -7 25 -7q142 5 243 -84t101 -233 q0 -115 -58 -222.5t-177 -195.5q-120 -87 -247 -125.5t-227 -38.5q-92 0 -156.5 36.5t-64.5 109.5z" />
<glyph unicode="4" d="M25 446l665 951q19 27 33 38t35 11h59q63 0 21 -55l-615 -852q-17 -20 -9 -31.5t54 -11.5h252q32 0 39.5 9.5t7.5 49.5v287q0 34 9.5 49t35.5 24q49 21 112 42.5t87 21.5q27 0 27 -35v-389q0 -40 7.5 -49.5t39.5 -9.5h135q23 -12 23 -57t-23 -58h-135q-32 0 -39.5 -9.5 t-7.5 -49.5v-58q0 -88 7.5 -125t27 -51t67.5 -18l43 -4q14 -9 12.5 -38.5t-16.5 -33.5q-111 6 -277 6q-222 0 -327 -6q-15 4 -16.5 33.5t12.5 38.5l84 6q54 4 75 17.5t29 50t8 124.5v58q0 40 -7.5 49.5t-39.5 9.5h-473q-37 15 -22 65z" />
<glyph unicode="5" d="M81 -86.5q-5 35.5 15 49.5q119 5 230.5 28.5t179.5 63.5q190 113 190 277q0 48 -11.5 88.5t-29 71t-47 55.5t-58 42t-69.5 31t-73 22t-77.5 14.5t-74.5 9.5t-72 6q-48 3 -59 17.5t-2 51.5l123 471q10 38 24.5 47t67.5 15l543 65q22 0 22 -24q-14 -59 -44 -117t-68 -94 l-463 -51q-20 -3 -30 -17t-17 -43l-13 -47q-8 -32 6 -44t50 -15q274 -30 417 -101q95 -47 156 -134.5t61 -207.5q0 -283 -294 -442q-120 -65 -267.5 -98.5t-287.5 -36.5q-23 11 -28 46.5z" />
<glyph unicode="6" d="M59 520q0 171 72 335t197 284q122 117 296.5 194t354.5 86q17 -9 19 -30.5t-13 -40.5q-178 -43 -279 -108t-194 -179q-78 -97 -116 -234t-38 -288q0 -84 14 -166t41 -151.5t71.5 -112.5t99.5 -43q44 0 76 22t48 58t23.5 73.5t7.5 77.5q0 58 -12.5 120.5t-37.5 125 t-73 103t-110 40.5q-13 2 -47 -2q-19 12 -15 37q29 34 91 62t114 28q92 0 164.5 -32.5t116 -87.5t66 -123t22.5 -144q0 -202 -128.5 -327.5t-340.5 -125.5q-229 0 -359.5 151.5t-130.5 397.5z" />
<glyph unicode="7" d="M20 981q27 77 80 307q102 -6 246 -6h393q257 0 297 6q10 -3 15.5 -13t3.5 -20q-79 -117 -203 -337l-590 -1045q-29 -5 -62 13.5t-36 50.5l538 935q68 121 68 162q0 33 -59 33h-435q-88 0 -119 -17t-67 -83q-12 -14 -38 -8.5t-32 22.5z" />
<glyph unicode="8" d="M74 303q0 110 70 192t200 148q-217 120 -217 315q0 153 116 253t304 100q175 0 285 -87.5t110 -232.5q0 -52 -18 -95.5t-54 -78t-69 -58t-82 -50.5q130 -66 202 -156t72 -227q0 -154 -120.5 -254.5t-350.5 -100.5q-124 0 -223 35.5t-162 112.5t-63 184zM338 326 q0 -110 60 -185t157 -75q71 0 120.5 51.5t49.5 140.5q0 59 -19.5 107.5t-59 88t-87.5 70t-117 62.5q-104 -104 -104 -260zM377 1026q0 -152 237 -254q47 29 73 89t26 134q0 100 -52 161t-118 61q-71 0 -118.5 -54t-47.5 -137z" />
<glyph unicode="9" d="M57 862q0 128 60.5 231.5t164.5 160.5t230 57q151 0 263.5 -73t168 -191t55.5 -263q0 -182 -74 -340.5t-208 -281.5q-125 -117 -304.5 -198.5t-310.5 -86.5q-18 7 -20 32.5t12 35.5q194 48 333 172t206 289.5t67 357.5q0 67 -10.5 138t-33 145.5t-67.5 122t-106 47.5 q-69 0 -110 -71t-41 -169q0 -87 22 -164.5t70.5 -135t114.5 -69.5q27 -4 57 -4q16 -10 12 -43q-26 -28 -82.5 -45.5t-119.5 -17.5q-146 0 -247.5 105t-101.5 259z" />
<glyph unicode=":" horiz-adv-x="532" d="M100 137q0 72 48.5 121t117.5 49q71 0 118.5 -51t47.5 -119q0 -71 -46.5 -118.5t-119.5 -47.5q-65 0 -115.5 47t-50.5 119zM100 631q0 75 48.5 125.5t117.5 50.5q72 0 119 -52t47 -124q0 -69 -46.5 -114.5t-119.5 -45.5q-65 0 -115.5 45t-50.5 115z" />
<glyph unicode=";" horiz-adv-x="532" d="M79 -249.5q-7 26.5 11 36.5q71 26 126.5 78.5t55.5 120.5q0 101 -118 133q-27 8 -45.5 33t-18.5 59q0 55 43 94t105 39q35 0 70.5 -15t67.5 -45t52.5 -83t20.5 -121q0 -73 -27.5 -135t-75 -105.5t-106 -73t-127.5 -45.5q-27 3 -34 29.5zM100 631q0 75 48.5 125.5 t117.5 50.5q72 0 119 -52t47 -124q0 -69 -46.5 -114.5t-119.5 -45.5q-65 0 -115.5 45t-50.5 115z" />
<glyph unicode="&#x3c;" d="M135 362v121l797 365v-170l-586 -252v-4l586 -254v-168z" />
<glyph unicode="=" d="M123 217v148h821v-148h-821zM123 512v147h821v-147h-821z" />
<glyph unicode="&#x3e;" d="M135 0v168l586 254v4l-586 252v170l797 -365v-121z" />
<glyph unicode="?" horiz-adv-x="679" d="M82 1196q0 52 40 89.5t103 37.5q93 0 179 -57.5t140 -154.5t54 -206q0 -160 -129 -219l-135 -61q-84 -38 -84 -88q0 -52 20 -111q-8 -14 -31.5 -18t-35.5 8q-32 42 -61 113t-29 128q0 80 41.5 120t142.5 83l96 41q54 24 76.5 39t22.5 35q0 47 -68.5 68.5t-228.5 21.5 q-37 0 -75 34.5t-38 96.5zM102 137q0 72 48.5 121t117.5 49q71 0 118.5 -51t47.5 -119q0 -71 -46.5 -118.5t-119.5 -47.5q-65 0 -115.5 47t-50.5 119z" />
<glyph unicode="@" horiz-adv-x="1574" d="M82 332q0 174 67 321.5t180.5 246t262 153.5t311.5 55q141 0 257 -45.5t189.5 -122.5t113.5 -176t40 -209q0 -100 -36.5 -186t-104.5 -149.5t-171 -99.5t-230 -36q-34 0 -60 4.5t-40 11t-23.5 14.5t-12 14.5t-2.5 12.5q0 11 19 66l43 112l-4 3q-77 -93 -191 -165.5 t-180 -72.5q-43 0 -66.5 26.5t-23.5 63.5q0 40 38.5 130t116.5 190q82 102 190.5 178t213.5 76q53 0 70 -33l49 92q20 4 32 4q69 0 109 -29q-9 -23 -112.5 -265.5t-118.5 -280.5q-14 -38 -8.5 -54t36.5 -16q63 0 126 26.5t115.5 74t85 122t32.5 162.5q0 138 -66.5 245 t-178 163.5t-247.5 56.5q-138 0 -257 -57t-199 -152.5t-125.5 -219.5t-45.5 -257q0 -72 16 -143t57.5 -145t104 -130t164.5 -91.5t230 -35.5q72 0 140 13.5t95.5 23.5t79.5 31q15 -6 21.5 -29.5t-2.5 -36.5q-86 -48 -193.5 -71t-206.5 -23q-110 0 -211 24t-190.5 75.5 t-155.5 125.5t-104.5 180.5t-38.5 233.5zM633 236q0 -29 20 -29q38 0 123 78q59 55 133 169.5t92 174.5q-19 51 -61 51q-27 0 -100 -64q-78 -70 -142.5 -193.5t-64.5 -186.5z" />
<glyph unicode="A" horiz-adv-x="1277" d="M-60 32q0 23 11 34l55 6q42 5 71.5 26t53.5 76q51 119 129 328l186 499q10 26 26 69t23 63t15.5 47t11 46t0.5 36q27 6 55 21t49 32t37.5 32.5t26 26t10.5 10.5q21 0 31.5 -9t16.5 -32q22 -80 92 -280l278 -803q36 -103 60 -138.5t77 -43.5l78 -12q11 -8 11 -35v-2 q0 -25 -13 -35q-147 6 -315 6q-136 0 -277 -6q-18 9 -19.5 34.5t15.5 37.5l66 10q55 9 55 35q0 20 -39 139l-55 176q-7 24 -25 30.5t-73 6.5h-244q-38 0 -48.5 -6t-19.5 -35l-80 -238q-14 -48 -14 -73q0 -20 84 -35l61 -10q10 -12 10 -38.5t-14 -33.5q-19 1 -231 6 q-32 0 -96.5 -3t-114.5 -3q-17 8 -17 38zM414 582q8 -10 47 -11h192q36 0 44 10q3 4 3 14q0 13 -6 36l-53 166q-62 190 -84 241q-3 -9 -36.5 -103t-51.5 -149l-51 -153q-7 -25 -7 -38q0 -9 3 -13z" />
<glyph unicode="B" horiz-adv-x="1300" d="M58 32.5q0 29.5 12 33.5l59 12q31 6 46.5 12.5t29 18t18.5 36.5t7.5 58t2.5 92v723q0 59 -0.5 89.5t-4 61t-8 42.5t-16 24t-25 15.5t-36.5 6.5l-55 9q-15 7 -14.5 39.5t22.5 33.5q296 19 510 19q289 0 418 -76q141 -85 141 -260q0 -49 -16 -91t-39 -69t-53.5 -48.5 t-54.5 -31.5t-46 -16q-41 -8 -41 -23q0 -10 29 -16q63 -14 115.5 -40.5t94.5 -67.5t66 -101q25 -62 25 -135q0 -130 -66 -216q-67 -87 -173 -124q-146 -51 -408 -51q-39 0 -111 4t-100 4q-141 0 -317 -6q-12 9 -12 38.5zM516 346q0 -53 3.5 -89t14 -71t30 -55t52.5 -32.5 t80 -12.5q111 0 171.5 77.5t60.5 205.5q0 138 -77.5 220.5t-221.5 82.5h-48t-31 -4t-20.5 -7t-9 -15.5t-4.5 -22.5v-35v-242zM516 819q0 -23 1.5 -32t14 -16t31.5 -8t62 -1q124 0 182.5 66.5t58.5 168.5q0 129 -70.5 198t-181.5 69q-37 0 -56 -3t-29 -17.5t-11.5 -31 t-1.5 -55.5v-338z" />
<glyph unicode="C" horiz-adv-x="1411" d="M82 659q0 337 248 543q107 89 255.5 135.5t311.5 46.5q92 0 182.5 -12t156 -26t83.5 -15q0 -160 24 -319q-6 -18 -36.5 -23.5t-40.5 8.5q-41 143 -139 218t-246 75q-88 0 -170 -37.5t-150 -109.5t-109.5 -190t-41.5 -265q0 -148 40.5 -269.5t108 -198t153 -118 t179.5 -41.5q292 0 418 318q12 13 40 8.5t37 -22.5q-10 -109 -32 -196.5t-45 -125.5q-6 -2 -37.5 -11t-42 -11.5t-41 -10.5t-46.5 -11.5t-45 -10t-50.5 -9t-48.5 -6t-53 -5t-52 -1.5q-158 0 -302 38.5t-249 117.5q-260 200 -260 536z" />
<glyph unicode="D" horiz-adv-x="1624" d="M54 30.5q0 27.5 12 35.5l63 10q50 8 69.5 23.5t27 56.5t7.5 139v725q0 153 -15 195t-83 49l-39 4q-16 7 -15 38.5t19 32.5q327 19 549 19q289 0 477 -68q196 -70 306 -233t110 -361q0 -206 -95 -365.5t-271 -246.5q-191 -96 -519 -96q-51 0 -144.5 6t-127.5 6 q-143 0 -319 -6q-12 9 -12 36.5zM526 371q0 -96 7.5 -148t33.5 -82q53 -59 170 -59q102 0 184.5 35.5t136 93t89 136t50.5 160.5t15 169q0 280 -145 434t-420 154q-86 0 -106 -27q-15 -20 -15 -119v-747z" />
<glyph unicode="E" horiz-adv-x="1214" d="M21 30.5q0 27.5 12 35.5l96 14q26 4 40 7.5t27.5 13t19 21.5t10.5 37t6 55.5t1 80.5v764q0 50 -1 80t-6 55t-10.5 37t-19 22t-27.5 14t-40 9l-51 10q-14 9 -12.5 36t16.5 36q144 -6 295 -6h434q233 0 274 6q1 -11 11 -125t16 -193q-6 -17 -33.5 -19.5t-42.5 11.5 q-38 119 -78 162q-63 63 -200 63h-164q-50 0 -59 -10.5t-9 -68.5v-359q0 -43 8.5 -52t49.5 -9h141q81 0 109 20t43 92l10 52q10 12 39.5 11.5t36.5 -13.5q-7 -116 -7 -218t7 -217q-8 -14 -36.5 -14.5t-39.5 12.5l-10 52q-15 73 -43 93.5t-109 20.5h-141q-42 0 -50 -9t-8 -54 v-244q0 -149 33 -195q22 -30 65 -41.5t150 -11.5q53 0 81.5 1.5t65 9t59 22t50.5 41t52.5 66.5t52.5 98q12 17 40.5 13t34.5 -23q-6 -75 -34 -179t-52 -149q-163 6 -473 6h-266q-121 0 -352 -6q-12 9 -12 36.5z" />
<glyph unicode="F" horiz-adv-x="1122" d="M49 30q0 27 12 36l68 10q31 5 46.5 10.5t29 17t18.5 37t7.5 59.5t2.5 95v762q0 61 -2.5 95.5t-7.5 60.5t-18 38t-29.5 18t-46.5 11l-41 6q-14 9 -13.5 37.5t17.5 34.5q132 -6 289 -6h430q233 0 276 6q0 -149 5 -320q-6 -17 -32.5 -19t-45.5 11q-34 125 -60 160 q-55 67 -200 67h-160q-50 0 -59 -11t-9 -72v-371q0 -42 9 -52t49 -10h157q82 0 109.5 20.5t42.5 94.5l10 49q11 13 40 12.5t38 -14.5q-6 -99 -6 -219q0 -121 6 -213q-9 -14 -38 -14.5t-40 12.5l-10 49q-15 73 -42.5 94t-109.5 21h-157q-40 0 -49 -10t-9 -52v-276 q0 -99 8 -140.5t27.5 -57t69.5 -21.5l76 -10q11 -9 11 -36t-11 -36q-191 6 -326 6t-320 -6q-12 9 -12 36z" />
<glyph unicode="G" horiz-adv-x="1503" d="M82 657q0 198 90 358.5t270 260.5q198 108 480 108q99 0 185.5 -12t141.5 -24.5t78 -12.5q2 -18 5.5 -79t9 -128t14.5 -122q-6 -17 -37 -18.5t-41 13.5q-99 289 -385 289q-119 0 -212.5 -47t-152 -129t-88.5 -188t-30 -230q0 -399 233 -557q116 -78 281 -78 q88 0 114.5 28.5t26.5 127.5v129q0 58 -8 83t-29 35.5t-74 18.5l-90 13q-17 9 -17 35.5t17 35.5q217 -6 346 -6q164 0 269 6q12 -9 12 -35.5t-12 -35.5l-47 -9q-46 -8 -60 -33.5t-14 -107.5v-115q0 -71 8 -100t35 -35q6 -6 4.5 -25.5t-10.5 -23.5q-103 -18 -144 -31 q-56 -18 -167.5 -33.5t-194.5 -15.5q-221 0 -404 72q-184 73 -293.5 237t-109.5 381z" />
<glyph unicode="H" horiz-adv-x="1650" d="M68 30q0 27 12 36l49 6q50 6 70 23t27 58t7 142v762q0 101 -7 142t-27 58t-70 23l-49 6q-12 9 -12 36t12 36q150 -6 305 -6q150 0 285 6q12 -9 12 -36t-12 -36l-43 -6q-47 -6 -66.5 -22.5t-27 -59t-7.5 -141.5v-238q0 -44 11.5 -52.5t74.5 -8.5h426q64 0 75 8t11 53v238 q0 62 -2 95.5t-7 59.5t-18 37.5t-29.5 17.5t-47.5 11l-55 8q-12 9 -12 36t12 36q170 -6 311 -6q148 0 289 6q12 -9 12 -36t-12 -36l-41 -6q-51 -8 -71 -24t-28 -58t-8 -141v-762q0 -61 2.5 -95t7.5 -59.5t19 -37t30 -18t48 -11.5l49 -8q12 -9 12 -36t-12 -36q-153 6 -297 6 q-154 0 -301 -6q-12 9 -12 36t12 36l45 6q50 6 70 23t27 58t7 142v295q0 43 -11 51t-75 8h-426q-63 0 -74.5 -8t-11.5 -51v-295q0 -99 8 -141t28 -58t69 -22l65 -8q12 -9 12 -36t-12 -36q-176 6 -311 6q-149 0 -305 -6q-12 9 -12 36z" />
<glyph unicode="I" horiz-adv-x="759" d="M58 30q0 27 12 36l57 10q32 5 48 11.5t29.5 18t18.5 37t7.5 60t2.5 96.5v754q0 62 -2.5 96.5t-7.5 60t-18.5 37t-29.5 18t-48 11.5l-57 10q-12 9 -12 36t12 36q166 -6 311 -6q143 0 309 6q12 -9 12 -36t-12 -36l-57 -10q-51 -9 -71 -24t-28 -57t-8 -142v-754 q0 -100 8 -142t28 -57t71 -24l57 -10q12 -9 11 -36t-13 -36q-166 6 -307 6q-145 0 -311 -6q-12 9 -12 36z" />
<glyph unicode="J" horiz-adv-x="784" d="M-115 -330q0 29 16 63t38 56q27 27 57 27q37 0 104 -52q66 -51 90 -51q11 0 20.5 7t16 21.5t11 28t8.5 36.5t5.5 37t4.5 38q18 157 18 402v770q0 77 -2.5 114.5t-15.5 62.5t-31 31.5t-57 12.5l-78 12q-12 9 -12 36t12 36q196 -6 330 -6q148 0 307 6q12 -9 12 -36t-12 -36 l-53 -10q-32 -6 -47.5 -12t-30 -18t-19.5 -37t-7.5 -59.5t-2.5 -96.5v-742q0 -271 -47 -395q-56 -145 -175 -233t-304 -95h-11q-19 0 -38 2q-25 4 -50 12t-41 25.5t-16 42.5z" />
<glyph unicode="K" horiz-adv-x="1464" d="M55 1322q0 27 17 36q153 -6 307 -6q145 0 309 6q14 -9 14 -36t-14 -36l-57 -8q-49 -6 -69 -22t-28 -58t-8 -141v-250q0 -48 8 -62t29 -14q29 0 79 40t85 79q11 12 53.5 59t58 64.5t49.5 56.5t52.5 61t41 51t38.5 52q27 40 27 53q0 8 -8.5 16t-26.5 11l-72 12 q-17 10 -14.5 38t22.5 34q156 -6 254 -6q125 0 248 6q18 -6 20.5 -33t-10.5 -39q-119 -13 -176 -37q-61 -25 -132 -86t-171 -176l-94 -106q-27 -31 -27 -47q0 -15 74 -127q18 -27 98.5 -151t140.5 -212.5t123 -171.5q38 -52 71 -70.5t81 -25.5l65 -10q9 -11 9 -32v-7 q-2 -26 -15 -33q-153 6 -295 6q-148 0 -321 -6q-20 6 -21 34.5t17 37.5l51 12q35 9 35 20q0 15 -17 41q-5 8 -29.5 45.5t-54 83.5t-34.5 54l-109 165q-62 94 -92 128t-62 34q-34 0 -41.5 -25t-7.5 -114v-215q0 -99 8 -141t28 -58t69 -22l57 -8q12 -10 12 -36.5t-12 -35.5 q-164 6 -309 6q-143 0 -307 -6q-12 9 -12 36t12 36l57 8q49 6 69 22t27.5 57.5t7.5 141.5v762q0 100 -7.5 141.5t-27.5 57.5t-69 22l-57 8q-17 9 -17 36z" />
<glyph unicode="L" horiz-adv-x="1198" d="M42 30q0 5 -1 9q0 20 10 27l78 10q50 6 69.5 21.5t27 57t7.5 140.5v762q0 100 -7.5 141.5t-27.5 57.5t-69 22l-59 8q-16 9 -15 36t19 36q159 -6 307 -6q150 0 303 6q12 -9 12 -36t-12 -36l-53 -8q-38 -6 -56 -13t-30.5 -32t-15.5 -63t-3 -113v-717q0 -152 35 -195 q22 -28 64 -39.5t149 -11.5q55 0 84 1.5t65.5 9t58 22t49.5 42.5t52.5 68.5t55.5 100.5q12 15 40 11t38 -23q-7 -76 -36.5 -182t-52.5 -150q-164 6 -473 6h-274q-133 0 -324 -6q-13 9 -15 36z" />
<glyph unicode="M" horiz-adv-x="1859" d="M22 30v6q0 24 13 30l37 6q43 7 63 13.5t35.5 24.5t20.5 43t10 76q4 44 8.5 116t9.5 178t10 179q13 223 13 414q0 83 -30 117t-97 45l-45 8q-13 12 -11.5 40t17.5 32q105 -6 258 -6q127 0 201 6q0 -37 6 -72.5t26.5 -88t31 -76.5t48.5 -104t49 -104l135 -288 q18 -40 121 -222q49 90 115 234l104 225q63 136 87.5 190.5t55 138t52.5 167.5q71 -6 203 -6q124 0 235 6q18 -10 18 -36q0 -22 -12 -36l-59 -10q-68 -11 -96.5 -41t-28.5 -107q0 -557 16 -901q3 -79 20 -112.5t73 -40.5l65 -8q12 -12 11.5 -39t-15.5 -33q-141 6 -283 6 q-156 0 -303 -6q-18 7 -19.5 34.5t13.5 37.5l62 8q24 3 39.5 6.5t26.5 13.5t16.5 17.5t8 30t3 39t0.5 55.5l-4 532v233h-4q-20 -43 -89 -190.5t-100 -216t-85 -188.5t-96 -220.5t-81 -199.5q-19 -15 -41 -15q-34 0 -53 13q-35 113 -117.5 302t-188 416t-141.5 310h-4 q-8 -140 -12 -330q-4 -266 -4 -461q0 -79 17 -106.5t77 -36.5l80 -12q12 -11 10 -37.5t-14 -34.5q-114 6 -242 6q-102 0 -225 -6q-19 6 -21 36z" />
<glyph unicode="N" horiz-adv-x="1531" d="M28 1326q2 28 17 32q144 -6 283 -6q108 0 172 6q13 -59 86.5 -157.5t225.5 -279.5q17 -20 26 -30l172 -203q163 -192 196 -225q8 20 8 92v283q0 302 -30 374q-22 52 -119 66l-55 8q-11 13 -10.5 37.5t10.5 34.5q166 -6 274 -6q109 0 229 6q11 -11 11 -37q0 -23 -11 -35 l-36 -6q-88 -13 -111 -68q-31 -74 -31 -374v-490q0 -262 4 -330q-10 -19 -46.5 -33t-73.5 -14q-1 0 -21 29.5t-61.5 86t-83.5 108.5l-473 585q-19 23 -47.5 58t-43 53t-35.5 43t-32.5 38.5t-25 29t-23 24.5t-17.5 16q-10 -20 -10 -131v-397q0 -301 31 -375q21 -50 119 -65 l57 -8q11 -13 10.5 -37.5t-10.5 -34.5q-167 6 -274 6q-113 0 -230 -6q-10 10 -10.5 34.5t10.5 37.5l35 6q47 9 74.5 23t38.5 44q28 67 28 375v520q0 140 -14 174q-26 57 -117 70l-57 8q-9 10 -9 30v10z" />
<glyph unicode="O" horiz-adv-x="1613" d="M82 666q0 151 54.5 283.5t150 228t232 151t294.5 55.5q211 0 374.5 -88.5t254 -248t90.5 -365.5q0 -220 -93 -382.5t-259.5 -247.5t-386.5 -85q-205 0 -366 84.5t-253 244.5t-92 370zM410 713q0 -82 11 -164.5t41 -172.5t76 -158t121.5 -112.5t171.5 -44.5q98 0 171 45.5 t116.5 127.5t64.5 187.5t21 233.5q0 176 -48 319.5t-141.5 229.5t-217.5 86q-185 0 -286 -157t-101 -420z" />
<glyph unicode="P" horiz-adv-x="1230" d="M57 29v5q0 22 15 29l57 11q31 5 46.5 11.5t29 18t18.5 37t7.5 59.5t2.5 95v725q0 71 -1.5 105t-5.5 65.5t-14.5 43t-25.5 18.5t-43 10l-63 8q-14 7 -13.5 33t17.5 36q256 19 473 19q237 0 375 -53q107 -40 178.5 -128.5t71.5 -226.5q0 -80 -25 -144.5t-67 -105t-90 -69 t-101.5 -42t-92 -19t-71.5 -5.5q-42 0 -65 2q-12 8 -14 27.5t8 28.5q118 37 161 117t43 208q0 59 -15.5 114t-46 101t-82.5 73.5t-118 27.5q-54 0 -67 -19.5t-13 -85.5v-864q0 -61 2.5 -95.5t7.5 -60t18.5 -37t29.5 -17.5t47 -11l65 -11q17 -8 17 -34t-17 -35q-172 6 -313 6 q-140 0 -307 -6q-17 9 -19 35z" />
<glyph unicode="Q" horiz-adv-x="1613" d="M82 666q0 151 54.5 283.5t150 228t232 151t294.5 55.5q320 0 519.5 -195t199.5 -509q0 -245 -113.5 -416t-314.5 -246q-20 -12 18 -47q263 -247 445 -295q67 -16 153 -16q45 0 88 16q13 -6 18 -21q3 -8 3 -15t-2 -13q-54 -38 -133.5 -57t-159.5 -19q-209 0 -396.5 96 t-342.5 257q-26 27 -36.5 37t-30 20t-42.5 12q-169 15 -305 102t-217.5 241.5t-81.5 349.5zM410 713q0 -57 5.5 -115.5t19.5 -123.5t35.5 -123.5t55 -112.5t76 -93t101.5 -62.5t128 -23.5q98 0 171 46t116.5 128.5t64.5 188t21 233.5q0 176 -48 319.5t-141.5 229.5 t-217.5 86q-185 0 -286 -157t-101 -420z" />
<glyph unicode="R" horiz-adv-x="1359" d="M62 30.5q0 27.5 12 35.5l55 10q31 5 46.5 11.5t29 18t18.5 36.5t7.5 59t2.5 94v725q0 59 -0.5 89t-4 61t-8 43t-16 24t-25 16t-36.5 7l-55 8q-16 7 -15 35.5t19 35.5q293 19 508 19q278 0 401 -74q181 -106 181 -303q0 -65 -19.5 -117t-55 -88.5t-67.5 -58.5t-75 -43 q-15 -7 -17 -17.5t6 -27.5q110 -224 179.5 -338.5t138.5 -173.5q66 -53 137 -58q13 -7 15 -25v-6q0 -14 -7 -22q-42 -18 -162 -18q-140 0 -234.5 52t-162.5 163q-81 134 -160 317q-18 40 -43 56t-65 16q-53 0 -64.5 -7t-11.5 -38v-252q0 -60 2.5 -94t7.5 -59t18.5 -36.5 t29 -18t46.5 -11.5l56 -10q10 -8 10 -35.5t-10 -36.5q-163 6 -301 6q-140 0 -299 -6q-12 9 -12 36.5zM514 760q0 -55 18.5 -66.5t108.5 -11.5q99 0 156 57q73 73 73 222q0 137 -74 220t-194 83q-63 0 -75.5 -15.5t-12.5 -89.5v-399z" />
<glyph unicode="S" horiz-adv-x="1036" d="M47 377q10 20 38 22t40 -16q16 -52 48.5 -106.5t77 -104t104.5 -80.5t122 -31q107 0 164 61.5t57 145.5q0 59 -25 111t-69.5 92.5t-87 68t-96.5 54.5q-309 156 -309 399v5q1 171 127 278q128 108 348 108q128 0 233 -32q43 -13 70 -17q37 -104 37 -293q-7 -18 -37 -19.5 t-43 13.5q-15 43 -37.5 84t-55.5 81t-79.5 64.5t-98.5 24.5q-97 0 -152.5 -55t-55.5 -135q0 -67 52.5 -129.5t133.5 -104.5l135 -71q289 -155 289 -412q0 -188 -142 -302t-374 -114q-214 0 -348 78q-29 33 -47.5 129.5t-18.5 202.5z" />
<glyph unicode="T" horiz-adv-x="1320" d="M16 1044q19 63 32 126.5t23.5 136.5t12.5 86q13 10 29 10q17 0 28 -8q6 -20 15.5 -27.5t43.5 -11.5t113 -4h762q107 0 139.5 7t45.5 38q12 6 26 6q22 0 31 -14q-15 -53 -25 -159q-7 -81 -7 -151q0 -22 1 -43q-7 -13 -38 -15.5t-38 9.5q-11 41 -18 63t-19.5 53t-26.5 47.5 t-35.5 33t-50.5 23.5t-67 7h-123q-37 0 -46 -9.5t-9 -49.5v-903q0 -99 8 -140.5t27.5 -57t69.5 -21.5l81 -10q11 -9 11 -36t-11 -36q-199 6 -327 6q-134 0 -348 -6q-12 9 -12 36t12 36l92 10q30 3 46.5 9t29.5 17t18 37t7.5 60.5t2.5 95.5v903q0 39 -7 49t-42 10h-127 q-55 0 -93.5 -13.5t-67.5 -47t-47.5 -69.5t-45.5 -101q-18 -10 -42.5 -5.5t-33.5 23.5z" />
<glyph unicode="U" horiz-adv-x="1515" d="M72 1358q147 -6 299 -6t299 6q12 -9 12 -35t-12 -35l-49 -8q-31 -5 -47 -11.5t-29.5 -18.5t-18.5 -37.5t-7.5 -60t-2.5 -95.5v-473q0 -59 2.5 -104t10.5 -100t22 -95.5t39.5 -81t60.5 -66t86.5 -41.5t116.5 -16q342 0 342 510v248q0 303 -31 374q-12 29 -40.5 43 t-77.5 23l-56 10q-11 13 -10.5 36.5t10.5 33.5q167 -6 275 -6q112 0 229 6q11 -10 11 -34v-2q0 -22 -11 -34l-37 -8q-46 -10 -72 -24t-38 -44q-31 -71 -31 -374v-230q0 -168 -26.5 -287.5t-104.5 -205.5q-67 -71 -173.5 -109.5t-232.5 -38.5q-263 0 -405 115 q-152 126 -152 463v512q0 61 -2.5 95t-7 59t-18.5 36.5t-29.5 18t-46.5 12.5l-51 10q-13 9 -13 33q0 28 17 37z" />
<glyph unicode="V" horiz-adv-x="1314" d="M-66 1328q3 22 17 30q25 0 120.5 -3t157.5 -3q121 0 308 6q11 -9 11 -32.5t-9 -37.5l-62 -12q-51 -11 -51 -39q0 -19 82 -225l180 -461l68 -172q48 105 73 166l78 192q115 292 164 428q21 59 21 74q0 19 -66 35l-65 14q-13 12 -11.5 37.5t19.5 32.5q144 -6 252 -6 q101 0 190 6q11 -6 13 -34q0 -3 1 -6q0 -22 -10 -30l-53 -10q-45 -8 -72.5 -22.5t-46.5 -45.5q-53 -80 -166 -348l-149 -354q-61 -144 -127 -319t-78 -205q-27 -17 -72 -17q-35 0 -55 17q-11 26 -41 111.5t-45 121.5l-332 834q-41 102 -62 142.5t-37.5 53t-53.5 21.5l-82 20 q-10 14 -10 31q0 5 1 9z" />
<glyph unicode="W" horiz-adv-x="1966" d="M-70 1326q2 25 19 32q114 -6 266 -6q131 0 248 6q13 -6 15.5 -34.5t-11.5 -37.5l-37 -6q-51 -8 -51 -31q0 -13 106 -254l203 -452q47 -104 113 -234q37 60 104 211l27 60q20 47 20 71q0 21 -22 76l-197 432q-36 77 -58.5 98t-80.5 27l-21 2q-15 12 -12.5 39t19.5 33 q132 -6 258 -6q156 0 235 6q17 -4 18.5 -34.5t-10.5 -37.5l-34 -8q-56 -13 -56 -29q0 -17 19 -61l61 -141q13 -32 64 -136q17 38 63 140l19 41q59 131 59 151q0 11 -8.5 17t-32.5 12l-74 14q-11 10 -9 37.5t15 34.5q88 -6 201 -6q130 0 209 6q12 -8 13.5 -35.5t-11.5 -38.5 l-57 -12q-57 -11 -81 -30.5t-75 -106.5q-37 -64 -127 -240q-45 -93 -45 -107q0 -13 16 -51l97 -207q74 -159 94 -206q15 37 133 318t176 429q53 133 53 166q0 20 -59 37l-45 12q-12 14 -10 39t16 33q99 -6 211 -6q102 0 188 6q14 -8 16 -34v-9q0 -19 -9 -29l-62 -14 q-68 -15 -92 -45q-41 -58 -113 -228q-30 -73 -124.5 -293t-175 -412t-124.5 -310q-20 -17 -67 -17q-32 0 -56 17q-13 28 -40.5 93.5t-36.5 86.5l-86 194q-55 126 -74 158q-41 -79 -70 -141l-96 -209q-14 -30 -41 -93t-45 -100q-16 -16 -68 -16q-24 0 -53 16 q-47 123 -184 424l-336 733q-41 90 -62 112.5t-73 33.5l-51 10q-11 13 -11 34v6z" />
<glyph unicode="X" horiz-adv-x="1361" d="M-34 27q-1 5 -1 10q0 17 10 24l48 7q86 11 133 45.5t104 111.5q90 120 258 369q29 44 29 63q0 21 -37 72q-21 30 -129.5 195.5t-163.5 244.5q-35 51 -74 75t-108 36l-35 6q-14 12 -13.5 37.5t15.5 34.5q99 -6 320 -6q216 0 311 6q16 -7 17.5 -33.5t-9.5 -38.5l-45 -8 q-70 -13 -70 -31q0 -23 33 -80q67 -117 193 -301q149 226 206 324q23 37 23 61q0 5 -11 11.5t-30 9.5l-82 14q-13 10 -11.5 37.5t17.5 34.5q95 -6 226 -6q148 0 247 6q15 -7 17.5 -33t-8.5 -39l-86 -12q-39 -5 -65.5 -15.5t-51.5 -35.5q-34 -35 -75 -85t-66 -83.5 t-75.5 -104t-68.5 -94.5q-41 -59 -41 -70q0 -18 29 -63q220 -340 328 -502q52 -78 95 -108.5t105 -38.5l64 -8q10 -9 10 -30v-6q-2 -26 -16 -36q-135 6 -320 6q-178 0 -344 -6q-14 6 -17 35t11 37l55 6q76 9 76 28q0 22 -59 121q-24 42 -109.5 173.5t-108.5 160.5 q-138 -202 -243 -401q-19 -39 -19 -56q0 -20 66 -26l53 -6q14 -10 12.5 -38t-18.5 -34q-135 6 -268 6q-124 0 -215 -6q-14 8 -18 33z" />
<glyph unicode="Y" horiz-adv-x="1177" d="M-53 1326q2 28 20 32q138 -6 289 -6q194 0 299 6q14 -6 15.5 -33t-11.5 -39l-70 -16q-49 -11 -49 -19q0 -22 54 -143l96 -219q32 -70 102 -213q27 45 55 99t70 137.5t51 101.5q99 194 99 231q0 20 -82 33l-39 8q-12 8 -12 36.5t14 35.5q123 -6 229 -6q113 0 201 6 q18 -6 20 -34v-6q0 -23 -12 -32l-53 -10q-78 -13 -107 -49q-58 -73 -178 -291l-129 -234q-40 -73 -53.5 -125t-13.5 -139v-143q0 -99 7.5 -140.5t27 -57t69.5 -21.5l82 -10q10 -9 10 -36t-10 -36q-200 6 -332 6q-140 0 -321 -6q-12 9 -12 36t12 36l69 10q31 5 47 10.5 t29.5 17t18.5 37t7.5 59.5t2.5 95v102q0 81 -9 123.5t-47 120.5l-243 504q-34 70 -57.5 95.5t-73.5 33.5l-70 12q-12 10 -12 33v7z" />
<glyph unicode="Z" horiz-adv-x="1257" d="M23 29q25 28 188 274l403 615q128 197 172 278q21 40 21 49q0 12 -70 12h-221q-72 0 -121.5 -9t-83.5 -23.5t-60.5 -46.5t-43.5 -64.5t-41 -91.5q-20 -12 -47.5 -7.5t-36.5 21.5q41 150 80 363q6 7 24 7h3q15 0 26 -5q7 -23 18 -31.5t44.5 -13t111.5 -4.5h586 q187 0 239 6q17 -10 13 -31q-74 -79 -307 -438l-224 -346q-224 -348 -243 -384q-15 -27 -15 -38q0 -9 12 -14.5t55 -9t122 -3.5h190q66 0 107 5t81 19t70 43.5t60 74.5t65 116q19 12 44.5 7.5t35.5 -21.5q-9 -87 -37.5 -197t-52.5 -147q-258 6 -428 6h-516q-158 0 -207 -6 q-11 4 -15 15q-3 7 -2 12q0 4 1 8z" />
<glyph unicode="[" horiz-adv-x="696" d="M248 -311v1720q47 2 160 2q163 0 225 -8q12 -6 12.5 -32t-10.5 -32l-141 -22q-27 -4 -40.5 -14.5t-23 -46.5t-12 -95.5t-2.5 -171.5v-880q0 -112 2.5 -171.5t12 -95.5t23 -46.5t40.5 -14.5l141 -23q11 -6 10.5 -31.5t-12.5 -31.5q-62 -8 -225 -8q-113 0 -160 2z" />
<glyph unicode="\" horiz-adv-x="657" d="M41 1384h184l391 -1417h-184z" />
<glyph unicode="]" horiz-adv-x="696" d="M50.5 -273.5q-0.5 25.5 10.5 31.5l142 23q27 4 40.5 14.5t23 46.5t12 95.5t2.5 171.5v880q0 112 -2.5 171.5t-12 95.5t-23 46.5t-40.5 14.5l-142 22q-11 6 -10.5 32t12.5 32q62 8 226 8q113 0 160 -2v-1720q-47 -2 -160 -2q-164 0 -226 8q-12 6 -12.5 31.5z" />
<glyph unicode="^" d="M123 500l342 782h139l340 -782h-182l-227 538l-228 -538h-184z" />
<glyph unicode="_" horiz-adv-x="1024" d="M0 -154h1024v-102h-1024v102z" />
<glyph unicode="`" horiz-adv-x="778" d="M180 1296q0 30 56 74q46 33 79 33q34 0 64 -62l186 -372q-6 -39 -51 -33l-289 285q-45 45 -45 75z" />
<glyph unicode="a" horiz-adv-x="907" d="M66 186q0 78 50.5 128.5t162.5 84.5q103 33 192 58q45 12 49 41q4 46 4 69q0 69 -29 122.5t-89 53.5q-89 0 -107 -116q-5 -43 -35 -66q-23 -17 -71 -32t-76 -15q-47 0 -47 51q0 38 29 82t69 76q64 50 154.5 87.5t189.5 37.5q263 0 263 -269q0 -14 -1 -28l-14 -270 q-1 -14 -1 -27q0 -74 25 -108q29 -42 68 -42q32 0 78 25q13 -3 21 -18q5 -9 5 -18q0 -6 -2 -11q-27 -35 -93.5 -73t-143.5 -38q-51 0 -89.5 17t-82.5 55q-19 16 -33 16q-12 0 -43 -22q-90 -66 -174 -66q-95 0 -162 56.5t-67 158.5zM328 227q0 -50 30.5 -86.5t73.5 -36.5 q44 0 60 24.5t18 76.5l4 129q1 10 1 17q0 11 -2 15q-3 6 -10 5h-3q-172 -22 -172 -144z" />
<glyph unicode="b" horiz-adv-x="1089" d="M48 1319q0 22 11 31q111 25 316 114q24 0 35 -14q-9 -126 -9 -299v-309q0 -44 25 -51q104 57 217 57q171 0 277 -116.5t106 -293.5q0 -219 -139 -343t-365 -124q-129 0 -219 37q-49 19 -63 19q-15 0 -37 -10t-33 -21q-24 -3 -41 14q6 40 6 203v926q0 67 -6 89t-35 40 l-35 20q-11 9 -11 31zM401 289q0 -94 41 -154q45 -69 121 -69q93 0 136.5 86.5t43.5 222.5q0 153 -67.5 248.5t-173.5 95.5q-51 0 -82 -23q-19 -14 -19 -94v-313z" />
<glyph unicode="c" horiz-adv-x="851" d="M63 385q0 141 71 248t186 161t255 54q120 0 216 -35q43 -37 43 -106q0 -45 -17.5 -81t-36.5 -36q-25 0 -32 10q-46 67 -102.5 110.5t-108.5 43.5q-94 0 -149.5 -89t-55.5 -204q0 -83 33 -156t101.5 -121.5t158.5 -48.5q122 0 182 101q21 2 37 -10.5t16 -35.5 q-39 -88 -133 -153.5t-229 -65.5q-193 0 -314 116t-121 298z" />
<glyph unicode="d" horiz-adv-x="1099" d="M63 375q0 141 66 250t176.5 166t245.5 57q79 0 117 -10q20 9 20 39v262q0 67 -6 89t-35 40l-35 20q-12 9 -11.5 31t11.5 31q123 28 314 114q24 0 35 -14q-7 -147 -7 -299v-815q0 -146 9 -193t38 -47q39 0 89 17q17 -13 17 -44t-15 -44q-57 -3 -115 -12t-101.5 -19.5 t-78 -20t-54 -16t-20.5 -6.5q-11 0 -21.5 8.5t-13.5 20.5l6 63q-1 12 -6.5 16.5t-11.5 -0.5q-45 -28 -74 -44t-70 -30t-77 -14q-172 0 -282 117.5t-110 286.5zM350 430q0 -54 13 -107.5t38.5 -103t72 -80t106.5 -30.5q44 0 84 24q16 10 20 27.5t4 50.5v397q0 42 -14 70 q-19 33 -51 54.5t-66 21.5q-84 0 -145.5 -85.5t-61.5 -238.5z" />
<glyph unicode="e" horiz-adv-x="860" d="M66 389q0 195 125.5 327t316.5 132q153 0 240.5 -85t87.5 -210q0 -33 -15 -50.5t-59 -17.5h-393q-35 0 -43.5 -5.5t-8.5 -30.5q0 -124 77 -214t212 -90q128 0 191 107q19 3 36 -9.5t17 -37.5q-40 -83 -103 -137.5t-126 -75.5t-129 -21q-133 0 -231.5 58.5t-146.5 152 t-48 207.5zM334 606q0 -20 19.5 -25.5t74.5 -5.5h76q53 0 84 19q14 8 14 47q0 52 -28 82.5t-80 30.5q-62 0 -111 -48t-49 -100z" />
<glyph unicode="f" horiz-adv-x="636" d="M34 736q-1 5 -1 9q0 14 6 19l88 45q23 12 34 23t11 30q0 79 14 174.5t43 163.5q115 264 402 264q95 0 167 -46t72 -122q0 -51 -32.5 -80.5t-85.5 -29.5q-50 0 -82 37q-62 79 -93.5 107t-52.5 28q-42 0 -64 -57t-22 -193v-231q0 -41 8 -49.5t46 -8.5h194q14 -8 14 -41 q0 -52 -26 -69h-182q-38 0 -46 -8.5t-8 -49.5v-413q0 -78 5.5 -110t20 -44.5t50.5 -15.5l68 -7q12 -9 11.5 -33.5t-13.5 -33.5q-144 6 -279 6q-147 0 -242 -6q-13 9 -13.5 33.5t11.5 33.5l33 5q39 4 55 17t21.5 45t5.5 110v413q0 41 -7.5 49.5t-43.5 8.5h-76q-9 6 -11 27z " />
<glyph unicode="g" horiz-adv-x="980" d="M39 -289q0 66 65 103q16 9 52 32.5t49 30.5q12 7 15 13t-1 10t-12 6q-57 19 -92 64.5t-35 99.5q0 29 14 43q100 65 131 96q29 23 17 45q-78 31 -126 101.5t-48 162.5q0 137 105 233.5t294 96.5q164 0 305 -76h236q18 -15 18 -51q0 -63 -31 -82h-151q6 -27 6 -72 q0 -52 -12 -100t-42.5 -96t-77 -83t-120.5 -57t-168 -22q-15 0 -84 6q-35 -14 -35 -49q0 -33 29.5 -53.5t75.5 -20.5q32 0 115.5 2t134.5 2q317 0 317 -248q0 -94 -50.5 -176t-133.5 -133q-151 -90 -359 -90q-106 0 -186.5 22.5t-125.5 61t-67 83.5t-22 95zM287 -213 q0 -104 72.5 -166.5t193.5 -62.5q97 0 156 44t59 117q0 85 -55 125.5t-146 40.5h-137q-82 0 -115 -26q-28 -25 -28 -72zM334 553q0 -115 39.5 -183.5t101.5 -68.5q51 0 84 51.5t33 157.5q0 119 -37 181.5t-96 62.5q-52 0 -88.5 -51.5t-36.5 -149.5z" />
<glyph unicode="h" horiz-adv-x="1120" d="M39 32q0 25 12 34l37 4q36 4 50.5 17t20 44t5.5 107v901q0 67 -6 89t-35 40l-35 20q-10 9 -10 31t10 31q84 20 313 114q24 0 35 -14q-6 -126 -6 -299v-377q0 -24 14 -24q6 0 33 16q119 82 236 82q124 0 191 -73t67 -185v-352q0 -76 5.5 -107t21.5 -44t55 -17l32 -4 q12 -9 12 -34q-1 -1 -1 -2q0 -27 -13 -36q-95 6 -247 6q-154 0 -222 -6q-13 9 -13.5 36t11.5 36l37 6q36 6 46 29t10 106v354q0 58 -36.5 97.5t-107.5 39.5q-40 0 -70.5 -15t-44.5 -34q-16 -19 -16 -76v-366q0 -84 9.5 -106.5t45.5 -28.5l37 -6q12 -9 11.5 -36t-13.5 -36 q-95 6 -227 6q-135 0 -240 -6q-14 9 -14 38z" />
<glyph unicode="i" horiz-adv-x="585" d="M45 32q0 25 12 34l39 4q51 4 63.5 32t12.5 136v309q0 67 -6 90t-33 41l-29 18q-10 9 -10 31t10 31q76 21 168 56.5t136 62.5q23 0 36 -19q-6 -91 -6 -244v-376q0 -108 12.5 -136t63.5 -32l39 -4q12 -9 12 -34q-1 -1 -1 -2q0 -27 -13 -36q-108 6 -246 6q-144 0 -246 -6 q-14 9 -14 38zM158 1159q0 66 45 108t108 42q64 0 104 -42t40 -104q0 -70 -45.5 -109.5t-108.5 -39.5q-66 0 -104.5 40.5t-38.5 104.5z" />
<glyph unicode="j" horiz-adv-x="575" d="M-44 -520q-4 11 -4 20q0 10 5 17q66 35 100 73q60 60 88.5 174.5t28.5 301.5v481q0 67 -6 90t-33 41l-29 18q-10 9 -10 31t10 31q75 21 166.5 56.5t137.5 62.5q23 0 36 -19q-6 -91 -6 -244v-505q0 -222 -43 -330q-44 -116 -133 -191.5t-278 -138.5q-22 7 -30 31z M160 1159q0 66 45 108t108 42q64 0 104 -42t40 -104q0 -70 -45.5 -109.5t-108.5 -39.5q-66 0 -104.5 40.5t-38.5 104.5z" />
<glyph unicode="k" horiz-adv-x="1089" d="M23 32q0 25 12 34l39 4q39 4 55 17t21.5 44t5.5 107v901q0 67 -6 89t-35 40l-35 20q-10 9 -10 31t10 31q110 26 313 114q24 0 35 -14q-6 -126 -6 -299v-643q0 -17 6 -23t23 -6q67 0 118 58l86 100q50 60 50 82q0 7 -12 12.5t-27 7.5l-52 9q-14 13 -12.5 39t16.5 32h50 q192 0 387 29q15 -7 17 -33.5t-9 -38.5l-66 -14q-61 -12 -137 -72q-74 -56 -137 -119q-12 -14 -12 -26q0 -13 14 -35q36 -64 135 -211.5t133 -179.5q33 -30 121 -47l31 -6q10 -8 10 -29q-1 -4 -1 -9q-2 -28 -17 -34q-95 6 -258 6q-167 0 -252 -6q-15 7 -18 33t9 39l27 6 q33 7 33 16q0 11 -35 66l-145 221q-19 31 -52 31q-24 0 -24 -50v-118q0 -76 5.5 -107t21 -44t53.5 -17l33 -4q12 -9 11 -36t-14 -36q-99 6 -245 6q-142 0 -250 -6q-14 9 -14 38z" />
<glyph unicode="l" horiz-adv-x="569" d="M29 32q0 25 12 34l39 4q51 4 63.5 32t12.5 136v901q0 67 -6 89t-35 40l-35 20q-10 9 -10 31t10 31q113 26 313 114q24 0 35 -14q-6 -126 -6 -299v-913q0 -76 5.5 -107t21 -44t53.5 -17l35 -4q12 -9 12 -34q-1 -1 -1 -2q0 -27 -13 -36q-102 6 -246 6q-138 0 -246 -6 q-14 9 -14 38z" />
<glyph unicode="m" horiz-adv-x="1650" d="M52 34q0 24 11 32l33 4q36 4 50.5 17t20 44t5.5 107v309q0 67 -6 90t-33 41l-29 18q-10 9 -10 31t10 31q75 21 167 56.5t137 62.5q23 0 36 -19q0 -16 -3 -51.5t-3 -40.5q0 -16 11 -16q6 0 38 16q137 82 236 82q115 0 184 -78q32 -37 49 -37q3 0 10.5 4t24 13.5t31.5 17.5 q5 3 25 14.5t31.5 18t35 16.5t42.5 16t45.5 10.5t53.5 4.5q117 0 182.5 -73.5t65.5 -184.5v-352q0 -76 5.5 -107t20 -44t50.5 -17l33 -4q12 -9 12 -34v-2q0 -27 -14 -36q-94 6 -240 6q-140 0 -223 -6q-13 9 -13.5 36t11.5 36l33 4q38 5 48.5 28.5t10.5 108.5v348 q0 62 -35 102.5t-102 40.5q-40 0 -72 -15.5t-43 -35.5q-14 -21 -14 -61v-379q0 -59 4.5 -85.5t15 -37.5t35.5 -14l33 -4q12 -9 11.5 -36t-13.5 -36q-94 6 -221 6q-138 0 -218 -6q-13 9 -13.5 36t11.5 36l33 4q36 5 46 29t10 108v348q0 63 -35 103t-105 40q-37 0 -67 -15 t-43 -34q-17 -20 -17 -76v-366q0 -84 10.5 -108t49.5 -29l32 -4q12 -9 11.5 -36t-13.5 -36q-95 6 -227 6q-141 0 -233 -6q-16 10 -16 40z" />
<glyph unicode="n" horiz-adv-x="1126" d="M45 32q0 25 12 34l33 4q39 4 55 17t21.5 44t5.5 107v309q0 67 -6 90t-33 41l-29 18q-10 9 -10 31t10 31q77 22 169.5 57.5t134.5 61.5q23 0 36 -19q0 -16 -3 -51.5t-3 -40.5q0 -16 11 -16q6 0 38 16q137 82 236 82q122 0 189 -73.5t67 -184.5v-352q0 -76 5.5 -107 t21.5 -44t55 -17l33 -4q12 -9 12 -34v-2q0 -27 -14 -36q-94 6 -248 6q-132 0 -221 -6q-13 9 -13.5 36t11.5 36l36 6q36 6 46 29t10 106v346q0 64 -35.5 104.5t-108.5 40.5q-40 0 -70 -14.5t-44 -34.5q-17 -20 -17 -76v-366q0 -84 10.5 -108t49.5 -29l32 -4q12 -9 11.5 -36 t-13.5 -36q-95 6 -227 6q-134 0 -242 -6q-14 9 -14 38z" />
<glyph unicode="o" horiz-adv-x="1056" d="M63 393v5q1 103 39 189q40 88 106 144t150.5 86.5t176.5 30.5t174 -28t145.5 -81t101 -137.5t37.5 -189.5q0 -109 -38 -194.5t-103.5 -138.5t-149.5 -80.5t-180 -27.5q-93 0 -174.5 26.5t-145.5 77.5t-101 133t-38 185zM358 438q0 -165 50 -268.5t137 -103.5 q153 0 153 305v12q-1 103 -20 185t-59.5 134t-96.5 52q-72 0 -118 -78.5t-46 -237.5z" />
<glyph unicode="p" horiz-adv-x="1112" d="M29 -490q0 24 12 33l41 4q51 4 63.5 32t12.5 136v832q0 67 -6 90t-33 41l-29 18q-10 9 -10 31t10 31q66 20 160 60.5t135 68.5h5q9 0 19 -5q13 -7 19 -20q-4 -25 -4 -67q0 -10 5 -18.5t11 -10.5q2 1 21 11t24.5 12.5t24.5 11.5t28.5 12.5t28 10.5t32 10l31.5 7t35 5.5 t35 1.5q159 0 254 -110.5t95 -280.5q0 -216 -139 -351t-363 -135q-65 0 -92 6q-31 -7 -31 -59v-203q0 -76 5.5 -107t20 -43.5t50.5 -15.5l69 -6q12 -9 11.5 -35.5t-13.5 -35.5q-153 6 -280 6q-133 0 -244 -6q-14 9 -14 38zM424 231q0 -71 47 -118q44 -47 98 -47 q93 0 145 89.5t52 235.5q0 147 -65 231.5t-169 84.5q-63 0 -86 -29q-22 -26 -22 -119v-328z" />
<glyph unicode="q" horiz-adv-x="1081" d="M63 375q0 214 145.5 343.5t371.5 129.5q104 0 221 -25q24 -6 39 -6q28 0 61 29l12 14h9q14 0 25 -4q15 -6 18 -16q-11 -92 -11 -265v-860q0 -76 5.5 -107t20 -43.5t50.5 -15.5l70 -6q12 -9 12 -33q0 -29 -14 -38q-144 6 -277 6q-139 0 -256 -6q-13 9 -13.5 35.5 t11.5 35.5l45 4q54 4 67 32t13 136v267q0 38 -18 38q-107 -49 -203 -49q-183 0 -293.5 117t-110.5 287zM348 451q0 -168 80 -262.5t184 -94.5q40 0 62 15q14 9 14 51v366q0 131 -41 183q-35 45 -98 45q-84 0 -142.5 -85.5t-58.5 -217.5z" />
<glyph unicode="r" horiz-adv-x="759" d="M45 28q0 25 12 33l39 5q51 4 63.5 32t12.5 135v310q0 67 -6 90t-33 41l-29 18q-10 9 -10 31t10 31q75 22 164.5 58t134.5 65q24 0 37 -19q-8 -82 -8 -88q0 -20 21 -25q10 6 52 39t75.5 48.5t72.5 15.5q45 0 79 -33t34 -88q0 -66 -38 -99.5t-93 -33.5q-40 0 -80 37 q-49 41 -78 41q-39 0 -39 -123v-316q0 -76 5.5 -107t20 -43t50.5 -15l66 -7q12 -9 11.5 -35.5t-13.5 -35.5q-147 6 -277 6q-140 0 -242 -6q-14 10 -14 38z" />
<glyph unicode="s" horiz-adv-x="733" d="M49 266q9 15 35 16.5t35 -12.5q24 -76 81 -140t128 -64q47 0 76.5 27.5t29.5 78.5q0 52 -36 87t-99 67q-102 51 -156.5 111.5t-54.5 146.5q0 127 93 195.5t233 68.5q71 0 134.5 -14.5t84.5 -28.5q31 -70 31 -205q-6 -16 -34.5 -18t-37.5 10q-30 87 -68.5 124.5 t-91.5 37.5q-45 0 -73.5 -24.5t-28.5 -65.5q0 -35 31 -66.5t100 -65.5q110 -54 167.5 -122.5t57.5 -163.5q-1 -131 -99.5 -203t-250.5 -72q-172 0 -254 64q-16 31 -26 97q-7 50 -8 101q0 16 1 33z" />
<glyph unicode="t" horiz-adv-x="661" d="M34 738q-1 5 0 10q0 16 9 24q73 27 170 92q82 60 152 160q7 5 20 5q6 0 12 -1q22 -3 29 -14v-154q0 -29 5.5 -35t33.5 -6h182q17 -14 17 -39q0 -55 -27 -71h-184q-20 0 -24.5 -7t-4.5 -40v-308q0 -39 1 -59t4.5 -53.5t12.5 -52t24 -38.5t40.5 -29t60.5 -9q39 0 86 30 q15 -5 23 -19q6 -11 7 -24q0 -5 -1 -10q-47 -50 -126 -84.5t-169 -34.5q-229 0 -229 234v457q0 33 -6 40t-33 7h-64q-17 5 -21 29z" />
<glyph unicode="u" horiz-adv-x="1114" d="M61 760q2 24 17 35q111 3 198 18q27 4 57.5 13t50 15.5t22.5 6.5q8 0 15 -8t9 -17q-6 -76 -6 -180v-338q0 -43 4.5 -71.5t18.5 -56.5t44.5 -42t77.5 -14q55 0 107 39q22 16 22 61v387q0 62 -16.5 83t-71.5 28l-28 4q-13 10 -10.5 38t20.5 34q87 5 213 20q31 4 65 12.5 t55 14.5t25 6q6 0 13 -7.5t8 -17.5q-6 -111 -6 -180v-373q0 -98 10 -136t45 -38q29 0 82 17q14 -3 14 -37q0 -43 -20 -51q-56 -2 -115 -10.5t-104 -19t-81 -20.5t-57 -17t-22 -7q-22 3 -25 24q6 37 6 74q0 9 -6.5 15t-15.5 6q-55 -35 -82.5 -50.5t-82.5 -32t-114 -16.5 q-125 0 -182 64.5t-57 197.5v349q0 78 -11.5 100t-50.5 33l-26 8q-9 11 -9 30v7z" />
<glyph unicode="v" horiz-adv-x="935" d="M-4 825q114 -6 254 -6q34 0 71.5 1t84 2.5t71.5 2.5q13 -7 13.5 -35.5t-9.5 -35.5l-32 -9q-12 -3 -16.5 -4t-10 -3.5t-7 -5.5t-1.5 -7q0 -16 18 -72q48 -133 129 -317q106 241 139 336q13 32 13 51q0 14 -49 25l-29 6q-14 9 -13.5 36.5t15.5 34.5q99 -6 168 -6 q23 0 158 6q16 -8 16 -34.5t-12 -36.5l-35 -6q-43 -7 -64.5 -28.5t-54.5 -84.5q-99 -197 -293 -649q-19 -15 -47 -15q-27 0 -49 15q-122 297 -279 628q-38 77 -56.5 98.5t-55.5 30.5l-43 11q-14 9 -14 34q0 31 20 37z" />
<glyph unicode="w" horiz-adv-x="1396" d="M-24 792q2 26 16 33q126 -6 235 -6h414q167 0 363 6q16 -1 17 -33t-11 -38l-31 -6q-76 -16 -76 -31q0 -14 17 -64q56 -148 139 -329q35 84 115 313q18 55 18 80q0 16 -51 28l-35 9q-10 10 -8 37.5t16 33.5q102 -6 168 -6q90 0 158 6q14 -5 16 -31v-8q0 -20 -10 -32 l-29 -6q-49 -10 -68.5 -30.5t-45.5 -80.5q-143 -318 -275 -651q-15 -15 -47 -15t-47 15q-64 166 -211 481q-17 -35 -223 -481q-15 -15 -47 -15t-47 15q-181 425 -300 680q-20 41 -36.5 54.5t-46.5 22.5l-37 11q-10 11 -10 32v6zM383 713q0 -22 18 -68q77 -190 146 -321 q26 49 63.5 132t44.5 111q7 31 7 62q0 28 -23.5 64t-52.5 42q-39 8 -99 8q-104 0 -104 -30z" />
<glyph unicode="x" horiz-adv-x="937" d="M-18 791q2 30 16 34q120 -6 248 -6q108 0 219 6q19 -6 20 -34t-16 -37l-25 -6q-30 -4 -30 -15t18 -43q25 -41 84 -125q1 1 34.5 49.5t53.5 77.5q14 21 14 37q0 9 -32 19l-23 6q-14 9 -11.5 37t17.5 34q88 -6 187 -6q78 0 155 6q15 -4 16.5 -33t-12.5 -38l-28 -4 q-80 -11 -123 -37q-20 -13 -67.5 -64t-86.5 -100q-39 -51 -39 -62q0 -15 43 -79l140 -207q52 -76 89.5 -102t92.5 -31l22 -2q12 -9 12 -32v-6q-2 -28 -18 -34q-135 6 -247 6q-132 0 -273 -6q-13 6 -15.5 34t9.5 38l45 8q35 7 35 22q0 14 -25 56q-76 118 -88 135 q-27 -40 -84 -135q-24 -44 -24 -60q0 -7 7.5 -11t29.5 -9l32 -6q12 -9 10 -37.5t-14 -34.5q-88 6 -184 6q-65 0 -160 -6q-14 8 -16 34t12 38l51 8q71 12 97 41q22 22 82.5 100.5t84.5 114.5q19 32 19 45q0 4 -66 108l-110 170q-28 44 -57 62.5t-68 27.5l-43 11q-10 6 -10 30 v7z" />
<glyph unicode="y" horiz-adv-x="960" d="M-22 792q2 27 16 33q111 -6 270 -6q116 0 230 6q15 -6 16.5 -33.5t-10.5 -37.5l-41 -9q-40 -8 -51 -15.5t-11 -22.5q0 -7 2 -17t9 -29.5t12 -33.5t18 -48t21 -55q2 -6 39.5 -104.5t52.5 -128.5q18 33 63 135l37 84q76 173 76 207q0 21 -45 28l-41 9q-14 10 -12.5 38.5 t18.5 32.5q67 -6 199 -6q81 0 160 6q15 -6 16 -34q1 -3 1 -5q0 -24 -13 -32l-39 -4q-66 -6 -94 -45q-48 -63 -121 -216l-109 -223q-39 -79 -158.5 -328t-152.5 -317q-62 -132 -176 -135h-4q-127 0 -127 123q0 47 31.5 76.5t84.5 29.5h50q68 0 100 43q17 23 59 113 q29 60 29 86q0 50 -39 149l-197 496q-33 82 -54.5 110.5t-67.5 35.5l-37 6q-10 9 -10 31v7z" />
<glyph unicode="z" horiz-adv-x="849" d="M33 588q9 63 28.5 148t34.5 122q8 8 22.5 8t20.5 -8q3 -18 10 -25t29.5 -10.5t75.5 -3.5h369q133 0 170 6q6 -3 10 -11.5t2 -14.5q-14 -19 -31 -46t-31 -50.5t-40 -68t-44 -75.5l-219 -373q-37 -64 -37 -84q0 -12 82 -12h50q147 0 192 70q18 26 61 110q12 12 39.5 8.5 t34.5 -18.5q-4 -58 -30.5 -147t-47.5 -119q-252 6 -327 6h-199q-150 0 -199 -6q-21 7 -14 33q89 132 180 295l191 337q22 43 22 60q0 10 -57 10h-64q-58 0 -92 -8.5t-53 -30.5q-40 -40 -66 -119q-13 -12 -39.5 -6t-33.5 23z" />
<glyph unicode="{" horiz-adv-x="696" d="M114 551q0 17 11 24q38 2 67.5 9.5t48.5 15.5t32 23.5t19 25.5t9.5 29.5t3.5 28v28.5q0 64 -16.5 207t-16.5 211q0 70 20 120.5t50.5 78.5t79.5 44t92.5 20.5t103.5 4.5q9 -5 11.5 -26.5t-6.5 -30.5q-172 -31 -172 -178q0 -69 19 -209t19 -211q0 -174 -153 -213v-8 q153 -39 153 -213q0 -71 -19 -211t-19 -209q0 -32 6 -56t22.5 -50t53 -44t90.5 -28q9 -9 6.5 -31t-11.5 -27q-63 0 -108 4.5t-93 20.5t-77.5 44.5t-48.5 79t-19 120.5q0 68 16.5 210.5t16.5 206.5q0 22 -2 38t-12 39t-28 38.5t-53.5 28.5t-84.5 16q-11 12 -11 29z" />
<glyph unicode="|" horiz-adv-x="507" d="M164 -512v2048h180v-2048h-180z" />
<glyph unicode="}" horiz-adv-x="696" d="M67 -297q-2 22 7 31q54 10 90.5 28t53 44t22.5 50t6 56q0 69 -19.5 209t-19.5 211q0 174 153 213v8q-153 39 -153 213q0 71 19.5 211t19.5 209q0 147 -172 178q-9 9 -7 30.5t11 26.5q60 0 103.5 -4.5t92.5 -20.5t79.5 -44t50.5 -78.5t20 -120.5q0 -68 -16.5 -211 t-16.5 -207v-28.5t3.5 -28t9.5 -29.5t19 -25.5t32 -23.5t48.5 -15.5t67.5 -9.5q11 -7 11 -24t-11 -29q-49 -3 -84.5 -16t-53.5 -28.5t-28 -38.5t-12 -39t-2 -38q0 -64 16.5 -206.5t16.5 -210.5q0 -70 -19 -120.5t-48.5 -79t-77.5 -44.5t-93 -20.5t-108 -4.5q-9 5 -11 27z " />
<glyph unicode="~" d="M115 227q5 39 36 108.5t66 113.5q33 38 73.5 49.5t110.5 11.5h261q70 0 106.5 34.5t67.5 117.5q24 16 60.5 7t53.5 -38q-15 -57 -46.5 -117.5t-65.5 -97.5q-28 -32 -63 -43t-93 -11h-283q-62 0 -101.5 -39.5t-72.5 -121.5q-23 -15 -62 -7.5t-48 33.5z" />
<glyph unicode="&#xa1;" horiz-adv-x="520" d="M94 641q0 72 50.5 119t115.5 47q73 0 119.5 -47.5t46.5 -118.5q0 -68 -47.5 -119t-118.5 -51q-69 0 -117.5 49t-48.5 121zM96 -457q0 15 3.5 40.5t13 86t16.5 113.5l86 575q19 12 45 12t45 -12l86 -575q7 -53 16.5 -113.5t13 -86t3.5 -40.5q0 -50 -39.5 -69t-124.5 -19 t-124.5 19t-39.5 69z" />
<glyph unicode="&#xa2;" d="M115 621q0 114 43.5 203t117.5 142.5t164 82t191 30.5l20 174q15 12 49.5 12t49.5 -12l-21 -178q86 -3 154 -26q16 -12 29.5 -40.5t13.5 -62.5q0 -50 -17 -80t-39 -30q-20 0 -32 12q-11 12 -36.5 40.5t-45 49.5t-33.5 31q-1 0 -2.5 1t-3.5 1l-74 -611q10 -4 33 -4 q72 0 122.5 27t100.5 92q24 3 40 -8t15 -31q-102 -199 -327 -215l-27 -213q-15 -12 -47 -12t-51 12l26 213q-192 12 -302.5 122.5t-110.5 277.5zM395 678q0 -108 39.5 -183.5t114.5 -109.5l72 606q-103 -4 -164.5 -94t-61.5 -219z" />
<glyph unicode="&#xa3;" d="M-25 8q0 52 103 133q149 120 149 439q0 11 -1 14.5t-3 4.5t-11.5 2t-18.5 3h-177q-13 11 -10.5 42t21.5 50h163q23 0 28 3.5t3 15.5q-2 20 -2 76q0 153 68 272.5t182.5 183.5t253.5 64q87 0 133 -31q25 -22 25 -68q0 -42 -27 -79t-47 -37q-27 0 -49 20q-98 80 -160 80 q-14 0 -29.5 -14t-30.5 -42t-24.5 -81t-9.5 -121q0 -91 12 -211q2 -21 9 -26t34 -5h262q13 -16 8.5 -45t-18.5 -47h-250q-29 0 -37 -4.5t-8 -24.5q0 -125 -55 -196.5t-162 -122.5l2 -4q74 9 141 -2q67 -9 203 -78q115 -59 195 -59q42 0 45.5 24.5t-23.5 85.5q-21 53 0 81 t58 28q40 0 71 -31.5t31 -95.5q0 -96 -101 -191.5t-227 -95.5q-55 0 -108 20t-129 68q-76 47 -131 72.5t-101 25.5q-34 0 -52.5 -24.5t-22.5 -52.5q-4 -19 -58 -37.5t-78 -18.5q-39 0 -39 37z" />
<glyph unicode="&#xa4;" d="M80 299l94 86q-38 44 -61 112.5t-23 143.5t23 143.5t61 112.5l-94 86q9 50 48.5 84t84.5 39l76 -100q99 73 243 73q145 0 244 -73l76 100q45 -5 84.5 -39t48.5 -84l-94 -86q38 -44 61 -112.5t23 -143.5t-23 -143.5t-61 -112.5l94 -86q-9 -50 -48.5 -84t-84.5 -39l-76 100 q-99 -73 -244 -73q-144 0 -243 73l-76 -100q-45 5 -84.5 39t-48.5 84zM279 641q0 -123 74.5 -202t178.5 -79t179 79.5t75 201.5t-75 201.5t-179 79.5q-105 0 -179 -79.5t-74 -201.5z" />
<glyph unicode="&#xa5;" d="M-30.5 1260q1.5 25 16.5 32q141 -6 290 -6q166 0 242 6q17 -6 16 -30t-14 -37l-55 -15q-41 -11 -41 -34q0 -18 47 -115q34 -68 139 -252q3 7 22.5 40.5t46.5 82t46 84.5q74 141 74 160q0 23 -60 38l-37 11q-18 10 -16 35t25 32q123 -6 196 -6q75 0 180 6q15 -6 15 -32 t-12 -35l-46 -13q-50 -13 -76 -39t-83 -116l-193 -307h281q17 -14 17 -46t-17 -47h-307v-155h307q17 -14 17 -45.5t-17 -46.5h-307v-172q0 -111 12 -138.5t63 -31.5l68 -7q12 -9 11.5 -33.5t-13.5 -33.5q-153 6 -277 6q-127 0 -286 -6q-13 9 -13.5 33.5t11.5 33.5l73 7 q36 3 50.5 15.5t20 44.5t5.5 110v172h-307q-15 15 -15 46.5t15 45.5h307v155h-307q-15 15 -15 47t15 46h268l-196 348q-22 37 -36 56.5t-41.5 39t-62.5 25.5l-36 6q-12 10 -10.5 35z" />
<glyph unicode="&#xa6;" horiz-adv-x="507" d="M164 -358v716h180v-716h-180zM164 666v716h180v-716h-180z" />
<glyph unicode="&#xa7;" horiz-adv-x="1075" d="M82 799q0 108 48 215.5t126 188t184 131t215 50.5q59 0 102 -12t64 -31.5t30 -37.5t9 -37q0 -43 -32.5 -65.5t-73.5 -22.5q-40 0 -84 32q-96 72 -138 72q-30 0 -58 -29.5t-28 -66.5q0 -40 18.5 -76.5t85.5 -100.5t193 -157q124 -92 187 -205.5t63 -277.5 q0 -105 -46.5 -215t-125 -201t-194.5 -149t-244 -58q-86 0 -134 31.5t-48 89.5q0 39 26.5 65.5t71.5 26.5q46 0 113 -47q42 -29 71 -41t64 -12q39 0 65.5 26.5t26.5 73.5q0 71 -82.5 169t-198.5 189q-139 110 -207.5 223.5t-68.5 258.5zM219 928q0 -33 2.5 -55t17.5 -65.5 t43.5 -84.5t86 -102t139.5 -129q143 -119 200 -231.5t42 -248.5l4 -4q102 108 102 254q0 114 -62.5 212.5t-199.5 207.5q-169 134 -223 224.5t-47 228.5q-44 -34 -74.5 -91t-30.5 -116z" />
<glyph unicode="&#xa8;" horiz-adv-x="778" d="M78 1118q0 57 36.5 94t92.5 37q53 0 89 -36.5t36 -84.5q0 -59 -35 -95t-90 -36q-56 0 -92 31.5t-37 89.5zM446 1118q0 57 36.5 94t92.5 37q53 0 89 -36.5t36 -84.5q0 -59 -35 -95t-90 -36q-56 0 -92 31.5t-37 89.5z" />
<glyph unicode="&#xa9;" horiz-adv-x="1597" d="M82 676q0 144 57 275t153 226t228.5 151t278.5 56t278.5 -56t228.5 -151t153 -226t57 -275t-57 -275.5t-153 -226.5t-228.5 -151t-278.5 -56t-278.5 56t-228.5 151t-153 226.5t-57 275.5zM221 678q0 -168 78.5 -310t211.5 -223.5t288 -81.5q116 0 222.5 48.5t184.5 130.5 t124 196t46 240t-46 239.5t-124 194.5t-184.5 128.5t-222.5 47.5q-156 0 -288.5 -80.5t-211 -221t-78.5 -308.5zM436 674q0 168 115.5 277.5t312.5 109.5q51 0 96.5 -6.5t90.5 -17t51 -11.5q3 -35 18 -211q-7 -10 -26.5 -12t-28.5 6q-20 68 -56 110.5t-69 56t-68 13.5 q-37 0 -72.5 -15.5t-69 -48.5t-54.5 -95.5t-21 -145.5q0 -152 68 -229.5t162 -77.5q121 0 211 170q9 9 26.5 7.5t26.5 -11.5q-5 -50 -19.5 -101t-33.5 -82q-44 -29 -111 -42t-121 -13q-100 0 -178 25t-123.5 63.5t-75.5 90t-40.5 97.5t-10.5 93z" />
<glyph unicode="&#xaa;" horiz-adv-x="765" d="M66 647q0 108 112 144q100 34 207 61q41 11 45 39v20q0 52 -21 87.5t-69 35.5q-61 0 -70 -65q-6 -44 -32 -64q-55 -31 -121 -31q-24 0 -37.5 10.5t-13.5 24.5q0 49 63 105q43 36 118.5 64t153.5 28q123 0 178.5 -46t51.5 -153l-10 -219q-3 -52 13.5 -77t45.5 -25 q24 0 55 14q13 -2 19 -13t0 -30q-24 -27 -74.5 -46t-91.5 -19q-86 0 -127 38q-21 21 -33 21q-4 0 -43 -25q-66 -34 -125 -34q-99 0 -146.5 48t-47.5 107zM270 668q0 -30 24 -55t58 -25q64 0 68 57l6 100q3 39 -16 39q-33 0 -58 -10q-39 -16 -60.5 -39.5t-21.5 -66.5z" />
<glyph unicode="&#xab;" horiz-adv-x="884" d="M90 391q-32 37 0 74q155 167 311 352q35 -9 45 -31l-155 -327q-13 -30 0 -60l155 -333q-17 -34 -45 -31q-168 199 -311 356zM455 391q-32 37 0 74q155 167 311 352q35 -9 45 -31l-156 -327q-13 -30 0 -60l156 -333q-17 -34 -45 -31q-168 199 -311 356z" />
<glyph unicode="&#xac;" d="M123 512v147h821v-522h-180v375h-641z" />
<glyph unicode="&#xad;" horiz-adv-x="671" d="M61 401q0 45 31 84l490 45q28 -31 28 -86q0 -46 -26 -79l-492 -46q-31 31 -31 82z" />
<glyph unicode="&#xae;" horiz-adv-x="708" d="M61 1100q0 119 86 202.5t207 83.5t207 -83.5t86 -202.5t-86 -203t-207 -84t-207 84t-86 203zM131 1100q0 -98 66 -167t157 -69q92 0 158 69t66 167q0 99 -65.5 168t-158.5 69q-91 0 -157 -69t-66 -168zM212.5 976q-0.5 10 2.5 11l10 2q19 4 23 11.5t4 35.5v129 q0 42 -27 45h-10q-3 6 -2.5 15t6.5 10q102 4 135 4q123 0 123 -76q0 -23 -13.5 -39.5t-31.5 -23.5q-6 -3 0 -17q38 -72 62 -90q19 -11 22 -12q3 0 3 -7.5t-3 -8.5q-12 -2 -35 -2q-57 0 -90 47q-8 12 -35 57q-6 12 -20 12q-10 0 -10 -10v-33q0 -20 1 -27t7 -12.5t20 -7.5 l8 -2q3 -1 3 -11t-3 -11q-12 0 -35 1t-38 1q-14 0 -37.5 -1t-32.5 -1q-6 1 -6.5 11zM326 1122q0 -12 3 -14t21 -2q22 0 31.5 14.5t9.5 30.5q0 27 -10.5 42t-28.5 15t-22 -3.5t-4 -14.5v-68z" />
<glyph unicode="&#xaf;" horiz-adv-x="778" d="M110 1098.5q0 47.5 19 72.5h518q20 -25 20 -72.5t-20 -72.5h-518q-19 25 -19 72.5z" />
<glyph unicode="&#xb0;" horiz-adv-x="765" d="M82 1020q0 129 87.5 210t213.5 81t213.5 -81t87.5 -210q0 -134 -86.5 -212.5t-214.5 -78.5t-214.5 78.5t-86.5 212.5zM223 1020q0 -89 45.5 -145t114.5 -56q75 0 117.5 55t42.5 146q0 88 -45.5 144.5t-114.5 56.5t-114.5 -56.5t-45.5 -144.5z" />
<glyph unicode="&#xb1;" d="M123 0v147h821v-147h-821zM123 506v147h321v285h181v-285h319v-147h-319v-301h-181v301h-321z" />
<glyph unicode="&#xb2;" horiz-adv-x="819" d="M86 690q103 81 207 187q65 68 109 152.5t44 170.5q0 64 -32 102.5t-88 38.5q-100 0 -166 -120q-15 -12 -36.5 -1t-21.5 35q51 100 136 152.5t182 52.5q131 0 203.5 -63.5t72.5 -165.5q0 -71 -44 -142.5t-156 -154.5l-64 -47l-51 -43q-15 -14 -9.5 -24.5t25.5 -10.5h127 q78 0 113 12t59 58q28 10 47 -9q-9 -51 -34 -119.5t-45 -99.5q-110 4 -234 4h-197q-87 0 -133 -4q-10 6 -13.5 17.5t-0.5 21.5z" />
<glyph unicode="&#xb3;" horiz-adv-x="819" d="M82 684q0 32 21.5 58t66.5 26q11 0 20.5 -2.5t18 -8.5t15.5 -11.5t14 -14.5l10.5 -13.5t10 -14t7.5 -11.5q22 -35 60 -35q52 -2 102.5 54.5t50.5 160.5q0 79 -37 125.5t-96 46.5q-80 0 -137 -51q-28 6 -37.5 31.5t4.5 42.5q129 49 182 87q74 54 74 118q0 36 -24.5 59 t-67.5 23q-37 0 -77 -25.5t-75 -77.5q-19 -7 -36 4.5t-15 30.5q42 81 121.5 127.5t169.5 46.5q99 0 161 -43t62 -108q0 -49 -32.5 -86t-124.5 -74q-14 -6 2 -15l14 -4q91 -11 153 -58.5t62 -141.5q0 -152 -170 -258q-78 -49 -165 -73t-152 -24q-61 0 -108.5 27.5t-47.5 81.5 z" />
<glyph unicode="&#xb4;" horiz-adv-x="778" d="M197 969l186 372q30 62 63 62q34 0 80 -33q56 -44 56 -74t-45 -75l-289 -285q-45 -6 -51 33z" />
<glyph unicode="&#xb5;" horiz-adv-x="1097" d="M150 -446v1247q0 12 6 15t20 3h227q18 -4 21 -18q-6 -38 -6 -158v-389q0 -141 92 -141q94 0 154 129q24 54 24 100v446q0 28 25 31h227q18 -4 21 -18q-7 -68 -7 -146v-438q0 -60 8 -82t33 -22q39 0 80 41q13 -8 22 -27.5t3 -30.5q-79 -123 -250 -123q-141 3 -154 156 q-2 14 -4 19t-8 4q-74 -181 -270 -181q-68 0 -133 43q-25 0 -25 -45v-39q0 -52 20 -113t44.5 -104t44.5 -82t20 -53q0 -44 -65 -86.5t-123 -42.5q-26 0 -36.5 24t-10.5 81z" />
<glyph unicode="&#xb6;" horiz-adv-x="1003" d="M82 694q0 120 53.5 210.5t143.5 142.5q158 90 415 90q173 0 244 -13q13 -7 13.5 -30t-11.5 -33l-70 -12q-31 -5 -44.5 -7.5t-29 -10t-20 -13t-9 -21.5t-5 -31.5t-0.5 -47.5v-873q0 -157 -28 -257.5t-99 -154.5q-56 -43 -168 -43q-87 0 -153 46t-66 135q0 48 20.5 82.5 t46.5 42.5q57 1 97.5 -20.5t46.5 -49.5q-1 -2 -9.5 -16.5t-14 -29.5t-5.5 -30q0 -37 24 -58.5t60 -21.5q20 0 37.5 7t36.5 26.5t33 51t23 85.5t9 125v240q0 42 -11.5 58t-41.5 16q-225 0 -371.5 115.5t-146.5 299.5z" />
<glyph unicode="&#xb7;" horiz-adv-x="532" d="M100 424q0 72 48.5 121t117.5 49q71 0 118.5 -51t47.5 -119q0 -71 -46.5 -118.5t-119.5 -47.5q-65 0 -115.5 47t-50.5 119z" />
<glyph unicode="&#xb8;" horiz-adv-x="778" d="M201 -424q0 28 18 48t47 20q30 0 74.5 -38t65.5 -38q19 0 36 14t17 37q0 45 -45 82.5t-111 65.5l-6 16l147 217h109l-78 -106q-12 -15 -8 -23.5t27 -20.5q124 -67 124 -174q0 -82 -78 -136t-182 -54q-74 0 -115.5 23.5t-41.5 66.5z" />
<glyph unicode="&#xb9;" horiz-adv-x="819" d="M166 1329q0 21 12 29q90 12 185.5 40.5t156.5 61.5q22 0 25 -16q-6 -105 -6 -180v-410v-9q0 -79 9 -102t52 -28l62 -8q9 -9 7 -29.5t-12 -26.5q-152 4 -235 4q-82 0 -234 -4q-10 6 -11.5 26.5t7.5 29.5l62 8q43 5 52 28t9 102v9v328q0 59 -11.5 81.5t-53.5 28.5l-64 8 q-12 8 -12 29z" />
<glyph unicode="&#xba;" horiz-adv-x="827" d="M70 784q0 150 101.5 236t248.5 86q152 0 246 -83t94 -220q0 -149 -98.5 -230t-251.5 -81q-148 0 -244 77t-96 215zM303 829q0 -122 32 -193t89 -71q50 0 76 55.5t26 137.5q0 123 -29 198.5t-85 75.5q-47 0 -78 -52t-31 -151z" />
<glyph unicode="&#xbb;" horiz-adv-x="884" d="M74 66l155 333q13 30 0 60l-155 327q10 22 45 31q156 -185 311 -352q32 -37 0 -74q-143 -157 -311 -356q-28 -3 -45 31zM438 66l156 333q13 30 0 60l-156 327q10 22 45 31q147 -175 312 -352q32 -37 0 -74q-156 -170 -312 -356q-28 -3 -45 31z" />
<glyph unicode="&#xbc;" horiz-adv-x="1720" d="M146 1179q0 21 12 29q89 12 185 41t157 62q21 0 24 -17q-6 -105 -6 -180v-409q0 -40 0.5 -55t3 -36t9.5 -27.5t18.5 -13t30.5 -8.5l61 -8q9 -9 7.5 -29t-11.5 -26q-152 4 -236 4q-81 0 -233 -4q-10 6 -11.5 26t7.5 29l61 8q44 6 53 30t9 110v327q0 58 -12 81.5t-54 29.5 l-63 8q-12 7 -12 28zM432 -33l758 1372q26 3 57.5 -11t38.5 -38l-758 -1372q-28 -6 -57 8.5t-39 40.5zM887 268l442 580q21 24 41 24h60q17 0 19 -12.5t-13 -32.5l-402 -505q-7 -20 31 -23h149q21 0 26 5.5t5 29.5v153q0 34 37 45q36 10 94 23.5t74 13.5q23 0 23 -20v-215 q0 -24 4.5 -29.5t25.5 -5.5h90q17 -6 17 -37.5t-17 -40.5h-90q-22 0 -26 -5.5t-4 -31.5v-28q0 -63 11.5 -81t61.5 -22l27 -2q11 -7 10.5 -27.5t-12.5 -27.5q-160 4 -230 4q-99 0 -217 -4q-12 6 -12.5 27t8.5 28l41 2q61 3 72.5 19t11.5 84v28q0 26 -4.5 31.5t-26.5 5.5h-313 q-22 12 -14 47z" />
<glyph unicode="&#xbd;" horiz-adv-x="1720" d="M123 1179q0 21 12 29q89 12 185 41t157 62q22 0 25 -17q-6 -105 -6 -180v-409v-9q0 -79 9 -102.5t52 -28.5l61 -8q9 -9 7.5 -29t-11.5 -26q-152 4 -235 4q-82 0 -234 -4q-10 6 -11.5 26t7.5 29l62 8q43 5 52 28.5t9 102.5v9v327q0 59 -11.5 82t-53.5 29l-64 8 q-12 7 -12 28zM408 -33l757 1372q26 3 58 -11t39 -38l-758 -1372q-28 -6 -57 8.5t-39 40.5zM993 35q107 84 207 186q65 68 109.5 153t44.5 171q0 64 -32.5 102.5t-88.5 38.5q-99 0 -166 -121q-15 -12 -36 -0.5t-21 35.5q51 100 135.5 152.5t181.5 52.5q131 0 204 -64 t73 -166q0 -71 -44 -141.5t-157 -154.5l-64 -48l-51 -43q-15 -14 -9.5 -24t26.5 -10h127q79 0 113.5 11.5t58.5 57.5q12 4 25.5 2t21.5 -10q-9 -50 -34 -119t-46 -100q-110 4 -234 4h-196q-87 0 -133 -4q-10 6 -14 17.5t-1 21.5z" />
<glyph unicode="&#xbe;" horiz-adv-x="1720" d="M88 535q0 32 21.5 57.5t66.5 25.5q11 0 20.5 -2.5t18.5 -8.5t15 -11t13.5 -14.5t11 -13.5t10 -14t7.5 -11q22 -35 60 -35q52 -2 102.5 54.5t50.5 160.5q0 79 -37 125.5t-96 46.5q-80 0 -137 -51q-28 6 -37.5 31.5t4.5 42.5q126 48 177 83q79 55 79 121q0 36 -24.5 59 t-67.5 23q-83 0 -151 -102q-19 -7 -36.5 4.5t-15.5 30.5q42 81 121.5 127.5t169.5 46.5q99 0 161 -43.5t62 -108.5q0 -49 -32.5 -86t-124.5 -74q-14 -6 2 -14q6 -3 14 -4q42 -5 78 -17.5t68 -35.5t50.5 -61t18.5 -87q0 -152 -170 -258q-77 -49 -164 -72.5t-153 -23.5 q-61 0 -108.5 27.5t-47.5 81.5zM483 -33l758 1372q26 3 57.5 -11t38.5 -38l-757 -1372q-28 -6 -57.5 8.5t-39.5 40.5zM958 268l443 580q21 24 41 24h59q17 0 19 -12.5t-13 -32.5l-401 -505q-7 -20 31 -23h149q21 0 26 5.5t5 29.5v153q0 34 37 45q36 10 94 23.5t74 13.5 q22 0 22 -20v-215q0 -24 5 -29.5t26 -5.5h90q17 -6 17 -37.5t-17 -40.5h-90q-22 0 -26.5 -5.5t-4.5 -31.5v-28q0 -63 11.5 -81t62.5 -22l27 -2q11 -7 10 -27.5t-13 -27.5q-160 4 -229 4q-99 0 -217 -4q-12 6 -12.5 27t8.5 28l41 2q61 3 72.5 19t11.5 84v28q0 26 -4.5 31.5 t-26.5 5.5h-313q-23 13 -15 47z" />
<glyph unicode="&#xbf;" horiz-adv-x="679" d="M82 -127q0 160 129 219l135 62q84 38 84 88q0 51 -20 110q8 14 31.5 18t35.5 -8q32 -42 61 -113t29 -128q0 -80 -41.5 -120t-142.5 -83l-96 -41q-54 -24 -76.5 -39t-22.5 -35q0 -47 68.5 -68.5t228.5 -21.5q37 0 75 -34.5t38 -96.5q0 -52 -40 -89.5t-103 -37.5 q-93 0 -179 57.5t-140 154.5t-54 206zM246 637q0 72 48.5 121t117.5 49q71 0 118.5 -51t47.5 -119q0 -71 -46.5 -118.5t-119.5 -47.5q-65 0 -115.5 47t-50.5 119z" />
<glyph unicode="&#xc0;" horiz-adv-x="1277" d="M-60 28.5q-1 26.5 11 37.5l55 6q42 5 71.5 26t53.5 76q51 119 129 328l186 499q10 26 26 69t23 63t15.5 47t11 46t0.5 36q27 6 55 21t49 32t37.5 32.5t26 26t10.5 10.5q21 0 31.5 -9t16.5 -32q22 -80 92 -280l278 -803q36 -103 60 -138.5t77 -43.5l78 -12q10 -8 10.5 -35 t-12.5 -37q-147 6 -315 6q-136 0 -277 -6q-18 9 -19.5 34.5t15.5 37.5l66 10q55 9 55 35q0 20 -39 139l-55 176q-7 24 -25 30.5t-73 6.5h-244q-38 0 -48.5 -6t-19.5 -35l-80 -238q-14 -48 -14 -73q0 -20 84 -35l61 -10q10 -12 10 -38.5t-14 -33.5q-19 1 -231 6 q-32 0 -96.5 -3t-114.5 -3q-16 8 -17 34.5zM317 1628q-10 35 21 88q34 64 70 64q23 0 67 -31l332 -242q4 -12 -3.5 -31t-19.5 -30l-401 131q-57 17 -66 51zM414 581.5q8 -10.5 47 -10.5h192q36 0 44 10t-3 50l-53 166q-62 190 -84 241q-3 -9 -36.5 -103t-51.5 -149l-51 -153 q-12 -41 -4 -51.5z" />
<glyph unicode="&#xc1;" horiz-adv-x="1277" d="M-60 28.5q-1 26.5 11 37.5l55 6q42 5 71.5 26t53.5 76q51 119 129 328l186 499q10 26 26 69t23 63t15.5 47t11 46t0.5 36q27 6 55 21t49 32t37.5 32.5t26 26t10.5 10.5q21 0 31.5 -9t16.5 -32q22 -80 92 -280l278 -803q36 -103 60 -138.5t77 -43.5l78 -12q10 -8 10.5 -35 t-12.5 -37q-147 6 -315 6q-136 0 -277 -6q-18 9 -19.5 34.5t15.5 37.5l66 10q55 9 55 35q0 20 -39 139l-55 176q-7 24 -25 30.5t-73 6.5h-244q-38 0 -48.5 -6t-19.5 -35l-80 -238q-14 -48 -14 -73q0 -20 84 -35l61 -10q10 -12 10 -38.5t-14 -33.5q-19 1 -231 6 q-32 0 -96.5 -3t-114.5 -3q-16 8 -17 34.5zM414 581.5q8 -10.5 47 -10.5h192q36 0 44 10t-3 50l-53 166q-62 190 -84 241q-3 -9 -36.5 -103t-51.5 -149l-51 -153q-12 -41 -4 -51.5zM510 1497l332 248q46 35 67 35q36 0 70 -64q30 -52 20 -88q-9 -34 -65 -51l-402 -131 q-13 5 -19.5 19.5t-2.5 31.5z" />
<glyph unicode="&#xc2;" horiz-adv-x="1277" d="M-60 28.5q-1 26.5 11 37.5l55 6q42 5 71.5 26t53.5 76q51 119 129 328l186 499q10 26 26 69t23 63t15.5 47t11 46t0.5 36q27 6 55 21t49 32t37.5 32.5t26 26t10.5 10.5q21 0 31.5 -9t16.5 -32q22 -80 92 -280l278 -803q36 -103 60 -138.5t77 -43.5l78 -12q10 -8 10.5 -35 t-12.5 -37q-147 6 -315 6q-136 0 -277 -6q-18 9 -19.5 34.5t15.5 37.5l66 10q55 9 55 35q0 20 -39 139l-55 176q-7 24 -25 30.5t-73 6.5h-244q-38 0 -48.5 -6t-19.5 -35l-80 -238q-14 -48 -14 -73q0 -20 84 -35l61 -10q10 -12 10 -38.5t-14 -33.5q-19 1 -231 6 q-32 0 -96.5 -3t-114.5 -3q-16 8 -17 34.5zM350 1495l260 244q22 21 48.5 21t48.5 -21l260 -244q6 -16 -4.5 -31.5t-22.5 -17.5l-248 102q-35 18 -67 2l-246 -104q-14 0 -24.5 16t-4.5 33zM414 581.5q8 -10.5 47 -10.5h192q36 0 44 10t-3 50l-53 166q-62 190 -84 241 q-3 -9 -36.5 -103t-51.5 -149l-51 -153q-12 -41 -4 -51.5z" />
<glyph unicode="&#xc3;" horiz-adv-x="1277" d="M-60 28.5q-1 26.5 11 37.5l55 6q42 5 71.5 26t53.5 76q51 119 129 328l186 499q10 26 26 69t23 63t15.5 47t11 46t0.5 36q27 6 55 21t49 32t37.5 32.5t26 26t10.5 10.5q21 0 31.5 -9t16.5 -32q22 -80 92 -280l278 -803q36 -103 60 -138.5t77 -43.5l78 -12q10 -8 10.5 -35 t-12.5 -37q-147 6 -315 6q-136 0 -277 -6q-18 9 -19.5 34.5t15.5 37.5l66 10q55 9 55 35q0 20 -39 139l-55 176q-7 24 -25 30.5t-73 6.5h-244q-38 0 -48.5 -6t-19.5 -35l-80 -238q-14 -48 -14 -73q0 -20 84 -35l61 -10q10 -12 10 -38.5t-14 -33.5q-19 1 -231 6 q-32 0 -96.5 -3t-114.5 -3q-16 8 -17 34.5zM365 1421q10 41 37 100.5t51 88.5q27 32 57 44.5t74 12.5h121q56 0 89 19t56 77q20 5 41 2t27 -12q-22 -105 -72 -176q-23 -32 -50.5 -44.5t-78.5 -12.5h-101q-71 0 -109 -23.5t-75 -87.5q-15 -7 -38 -3t-29 15zM414 581.5 q8 -10.5 47 -10.5h192q36 0 44 10t-3 50l-53 166q-62 190 -84 241q-3 -9 -36.5 -103t-51.5 -149l-51 -153q-12 -41 -4 -51.5z" />
<glyph unicode="&#xc4;" horiz-adv-x="1277" d="M-60 28.5q-1 26.5 11 37.5l55 6q42 5 71.5 26t53.5 76q51 119 129 328l186 499q10 26 26 69t23 63t15.5 47t11 46t0.5 36q27 6 55 21t49 32t37.5 32.5t26 26t10.5 10.5q21 0 31.5 -9t16.5 -32q22 -80 92 -280l278 -803q36 -103 60 -138.5t77 -43.5l78 -12q10 -8 10.5 -35 t-12.5 -37q-147 6 -315 6q-136 0 -277 -6q-18 9 -19.5 34.5t15.5 37.5l66 10q55 9 55 35q0 20 -39 139l-55 176q-7 24 -25 30.5t-73 6.5h-244q-38 0 -48.5 -6t-19.5 -35l-80 -238q-14 -48 -14 -73q0 -20 84 -35l61 -10q10 -12 10 -38.5t-14 -33.5q-19 1 -231 6 q-32 0 -96.5 -3t-114.5 -3q-16 8 -17 34.5zM301 1577q0 57 35.5 94t89.5 37q53 0 88 -36t35 -85q0 -58 -34.5 -93.5t-88.5 -35.5t-89 31t-36 88zM414 581.5q8 -10.5 47 -10.5h192q36 0 44 10t-3 50l-53 166q-62 190 -84 241q-3 -9 -36.5 -103t-51.5 -149l-51 -153 q-12 -41 -4 -51.5zM729 1577q0 57 35.5 94t89.5 37q53 0 88 -36t35 -85q0 -58 -34.5 -93.5t-88.5 -35.5t-89 31t-36 88z" />
<glyph unicode="&#xc5;" horiz-adv-x="1277" d="M-60 28.5q-1 26.5 11 37.5l55 6q42 5 71.5 26t53.5 76q51 119 129 328l186 499q10 26 26 69t23 63t15.5 47t11 46t0.5 36q27 6 55 21t49 32t37.5 32.5t26 26t10.5 10.5q21 0 31.5 -9t16.5 -32q22 -80 92 -280l278 -803q36 -103 60 -138.5t77 -43.5l78 -12q10 -8 10.5 -35 t-12.5 -37q-147 6 -315 6q-136 0 -277 -6q-18 9 -19.5 34.5t15.5 37.5l66 10q55 9 55 35q0 20 -39 139l-55 176q-7 24 -25 30.5t-73 6.5h-244q-38 0 -48.5 -6t-19.5 -35l-80 -238q-14 -48 -14 -73q0 -20 84 -35l61 -10q10 -12 10 -38.5t-14 -33.5q-19 1 -231 6 q-32 0 -96.5 -3t-114.5 -3q-16 8 -17 34.5zM414 581.5q8 -10.5 47 -10.5h192q36 0 44 10t-3 50l-53 166q-62 190 -84 241q-3 -9 -36.5 -103t-51.5 -149l-51 -153q-12 -41 -4 -51.5zM428 1614q0 81 58.5 141t152.5 60t152.5 -60t58.5 -141t-58.5 -142t-152.5 -61t-152.5 61 t-58.5 142zM547 1614q0 -53 24.5 -89t67.5 -36t67.5 36t24.5 89t-24.5 89.5t-67.5 39.5q-43 -3 -67.5 -39.5t-24.5 -89.5z" />
<glyph unicode="&#xc6;" horiz-adv-x="1722" d="M-155.5 30q-0.5 27 12.5 36l55 8q46 6 79.5 33.5t71.5 95.5q211 374 467 882q62 122 62 148q0 12 -12 21t-31 12l-119 20q-15 10 -14.5 37.5t20.5 34.5q110 -4 174 -4q59 -2 181 -2h528q233 0 274 6q1 -11 11 -125t16 -193q-6 -17 -33.5 -19.5t-42.5 11.5 q-38 119 -78 162q-63 63 -200 63h-164q-50 0 -59 -10.5t-9 -68.5v-359q0 -43 8.5 -52t49.5 -9h141q81 0 108.5 20t42.5 92l11 52q10 12 39 11.5t36 -13.5q-6 -99 -6 -218q0 -118 6 -217q-8 -14 -36 -14.5t-39 12.5l-11 52q-15 73 -43 93.5t-108 20.5h-141q-42 0 -50 -9 t-8 -54v-244q0 -149 33 -195q22 -30 65 -41.5t150 -11.5q40 0 62.5 0.5t52.5 4t48 10t41 18t39.5 28.5t37 42t39.5 58t40 77q12 17 41 13t35 -23q-6 -75 -34 -179t-52 -149q-29 1 -103.5 2t-111.5 2q-41 0 -128.5 1t-129.5 1h-266q-111 0 -342 -6q-12 9 -12 37t12 35l96 14 q31 5 46.5 10.5t29.5 16.5t19 35.5t7.5 58.5t2.5 94v287q0 45 -9 56t-45 11h-215q-37 0 -51 -7.5t-26 -31.5q-131 -251 -213 -442q-17 -44 -17 -59q0 -23 51 -31l78 -12q17 -11 16 -38.5t-18 -33.5q-105 6 -233 6q-100 0 -211 -6q-14 9 -14.5 36zM488.5 763q5.5 -5 31.5 -5 h178q37 0 45.5 12.5t8.5 65.5v327q0 77 -7 94h-10q-26 -32 -82 -147l-161 -319q-9 -23 -3.5 -28z" />
<glyph unicode="&#xc7;" horiz-adv-x="1411" d="M82 659q0 337 248 543q107 89 255.5 135.5t311.5 46.5q92 0 182.5 -12t156 -26t83.5 -15q0 -160 24 -319q-6 -18 -36.5 -23.5t-40.5 8.5q-41 143 -139 218t-246 75q-88 0 -170 -37.5t-150 -109.5t-109.5 -190t-41.5 -265q0 -148 40.5 -269.5t108 -198t153 -118 t179.5 -41.5q292 0 418 318q12 13 40 8.5t37 -22.5q-10 -109 -32 -196.5t-45 -125.5q-78 -23 -114.5 -32.5t-113.5 -24t-143 -17.5l-53 -75q-11 -15 -8 -23.5t26 -20.5q125 -67 125 -174q0 -82 -78 -136t-182 -54q-74 0 -116 23.5t-42 66.5q0 28 18.5 48t47.5 20 q30 0 74 -38t65 -38q19 0 36 14t17 37q0 83 -155 148l-6 16l124 186q-301 13 -489 154q-260 200 -260 536z" />
<glyph unicode="&#xc8;" horiz-adv-x="1214" d="M21 30.5q0 27.5 12 35.5l96 14q26 4 40 7.5t27.5 13t19 21.5t10.5 37t6 55.5t1 80.5v764q0 50 -1 80t-6 55t-10.5 37t-19 22t-27.5 14t-40 9l-51 10q-14 9 -12.5 36t16.5 36q144 -6 295 -6h434q233 0 274 6q1 -11 11 -125t16 -193q-6 -17 -33.5 -19.5t-42.5 11.5 q-38 119 -78 162q-63 63 -200 63h-164q-50 0 -59 -10.5t-9 -68.5v-359q0 -43 8.5 -52t49.5 -9h141q81 0 109 20t43 92l10 52q10 12 39.5 11.5t36.5 -13.5q-7 -116 -7 -218t7 -217q-8 -14 -36.5 -14.5t-39.5 12.5l-10 52q-15 73 -43 93.5t-109 20.5h-141q-42 0 -50 -9t-8 -54 v-244q0 -149 33 -195q22 -30 65 -41.5t150 -11.5q53 0 81.5 1.5t65 9t59 22t50.5 41t52.5 66.5t52.5 98q12 17 40.5 13t34.5 -23q-6 -75 -34 -179t-52 -149q-163 6 -473 6h-266q-121 0 -352 -6q-12 9 -12 36.5zM266 1628q-10 35 21 88q34 64 69 64q24 0 68 -31l332 -242 q4 -12 -3.5 -31t-19.5 -30l-401 131q-57 17 -66 51z" />
<glyph unicode="&#xc9;" horiz-adv-x="1214" d="M21 30.5q0 27.5 12 35.5l96 14q26 4 40 7.5t27.5 13t19 21.5t10.5 37t6 55.5t1 80.5v764q0 50 -1 80t-6 55t-10.5 37t-19 22t-27.5 14t-40 9l-51 10q-14 9 -12.5 36t16.5 36q144 -6 295 -6h434q233 0 274 6q1 -11 11 -125t16 -193q-6 -17 -33.5 -19.5t-42.5 11.5 q-38 119 -78 162q-63 63 -200 63h-164q-50 0 -59 -10.5t-9 -68.5v-359q0 -43 8.5 -52t49.5 -9h141q81 0 109 20t43 92l10 52q10 12 39.5 11.5t36.5 -13.5q-7 -116 -7 -218t7 -217q-8 -14 -36.5 -14.5t-39.5 12.5l-10 52q-15 73 -43 93.5t-109 20.5h-141q-42 0 -50 -9t-8 -54 v-244q0 -149 33 -195q22 -30 65 -41.5t150 -11.5q53 0 81.5 1.5t65 9t59 22t50.5 41t52.5 66.5t52.5 98q12 17 40.5 13t34.5 -23q-6 -75 -34 -179t-52 -149q-163 6 -473 6h-266q-121 0 -352 -6q-12 9 -12 36.5zM520 1497l332 248q46 35 68 35q35 0 69 -64q31 -53 21 -88 q-9 -34 -66 -51l-401 -131q-13 5 -20 19.5t-3 31.5z" />
<glyph unicode="&#xca;" horiz-adv-x="1214" d="M21 30.5q0 27.5 12 35.5l96 14q26 4 40 7.5t27.5 13t19 21.5t10.5 37t6 55.5t1 80.5v764q0 50 -1 80t-6 55t-10.5 37t-19 22t-27.5 14t-40 9l-51 10q-14 9 -12.5 36t16.5 36q144 -6 295 -6h434q233 0 274 6q1 -11 11 -125t16 -193q-6 -17 -33.5 -19.5t-42.5 11.5 q-38 119 -78 162q-63 63 -200 63h-164q-50 0 -59 -10.5t-9 -68.5v-359q0 -43 8.5 -52t49.5 -9h141q81 0 109 20t43 92l10 52q10 12 39.5 11.5t36.5 -13.5q-7 -116 -7 -218t7 -217q-8 -14 -36.5 -14.5t-39.5 12.5l-10 52q-15 73 -43 93.5t-109 20.5h-141q-42 0 -50 -9t-8 -54 v-244q0 -149 33 -195q22 -30 65 -41.5t150 -11.5q53 0 81.5 1.5t65 9t59 22t50.5 41t52.5 66.5t52.5 98q12 17 40.5 13t34.5 -23q-6 -75 -34 -179t-52 -149q-163 6 -473 6h-266q-121 0 -352 -6q-12 9 -12 36.5zM322 1493l247 231q47 43 90 0l248 -231q6 -16 -3 -30.5 t-21 -16.5l-236 98q-35 15 -65 2l-234 -100q-14 0 -23 15t-3 32z" />
<glyph unicode="&#xcb;" horiz-adv-x="1214" d="M21 30.5q0 27.5 12 35.5l96 14q26 4 40 7.5t27.5 13t19 21.5t10.5 37t6 55.5t1 80.5v764q0 50 -1 80t-6 55t-10.5 37t-19 22t-27.5 14t-40 9l-51 10q-14 9 -12.5 36t16.5 36q144 -6 295 -6h434q233 0 274 6q1 -11 11 -125t16 -193q-6 -17 -33.5 -19.5t-42.5 11.5 q-38 119 -78 162q-63 63 -200 63h-164q-50 0 -59 -10.5t-9 -68.5v-359q0 -43 8.5 -52t49.5 -9h141q81 0 109 20t43 92l10 52q10 12 39.5 11.5t36.5 -13.5q-7 -116 -7 -218t7 -217q-8 -14 -36.5 -14.5t-39.5 12.5l-10 52q-15 73 -43 93.5t-109 20.5h-141q-42 0 -50 -9t-8 -54 v-244q0 -149 33 -195q22 -30 65 -41.5t150 -11.5q53 0 81.5 1.5t65 9t59 22t50.5 41t52.5 66.5t52.5 98q12 17 40.5 13t34.5 -23q-6 -75 -34 -179t-52 -149q-163 6 -473 6h-266q-121 0 -352 -6q-12 9 -12 36.5zM299 1577q0 57 35.5 94t89.5 37q53 0 88 -36t35 -85 q0 -58 -34.5 -93.5t-88.5 -35.5t-89 31t-36 88zM727 1577q0 57 35.5 94t89.5 37q53 0 88 -36t35 -85q0 -58 -34.5 -93.5t-88.5 -35.5t-89 31t-36 88z" />
<glyph unicode="&#xcc;" horiz-adv-x="759" d="M37 1628q-10 37 22 86q51 76 78 76q25 0 66 -33l323 -250q4 -12 -3 -31t-19 -30l-402 131q-56 17 -65 51zM58 30q0 27 12 36l57 10q32 5 48 11.5t29.5 18t18.5 37t7.5 60t2.5 96.5v754q0 62 -2.5 96.5t-7.5 60t-18.5 37t-29.5 18t-48 11.5l-57 10q-12 9 -12 36t12 36 q166 -6 311 -6q143 0 309 6q12 -9 12 -36t-12 -36l-57 -10q-51 -9 -71 -24t-28 -57t-8 -142v-754q0 -100 8 -142t28 -57t71 -24l57 -10q12 -9 11 -36t-13 -36q-166 6 -307 6q-145 0 -311 -6q-12 9 -12 36z" />
<glyph unicode="&#xcd;" horiz-adv-x="759" d="M58 30q0 27 12 36l57 10q32 5 48 11.5t29.5 18t18.5 37t7.5 60t2.5 96.5v754q0 62 -2.5 96.5t-7.5 60t-18.5 37t-29.5 18t-48 11.5l-57 10q-12 9 -12 36t12 36q166 -6 311 -6q143 0 309 6q12 -9 12 -36t-12 -36l-57 -10q-51 -9 -71 -24t-28 -57t-8 -142v-754 q0 -100 8 -142t28 -57t71 -24l57 -10q12 -9 11 -36t-13 -36q-166 6 -307 6q-145 0 -311 -6q-12 9 -12 36zM231 1497l332 256q46 35 68 35q35 0 69 -64q31 -62 21 -96q-9 -34 -66 -51l-401 -131q-13 5 -20 19.5t-3 31.5z" />
<glyph unicode="&#xce;" horiz-adv-x="759" d="M58 30q0 27 12 36l57 10q32 5 48 11.5t29.5 18t18.5 37t7.5 60t2.5 96.5v754q0 62 -2.5 96.5t-7.5 60t-18.5 37t-29.5 18t-48 11.5l-57 10q-12 9 -12 36t12 36q166 -6 311 -6q143 0 309 6q12 -9 12 -36t-12 -36l-57 -10q-51 -9 -71 -24t-28 -57t-8 -142v-754 q0 -100 8 -142t28 -57t71 -24l57 -10q12 -9 11 -36t-13 -36q-166 6 -307 6q-145 0 -311 -6q-12 9 -12 36zM82 1495l260 244q22 21 48 21t48 -21l260 -244q6 -16 -4 -31.5t-22 -17.5l-248 108q-34 15 -68 0l-245 -108q-14 0 -24.5 16t-4.5 33z" />
<glyph unicode="&#xcf;" horiz-adv-x="759" d="M43 1577q0 57 35.5 94t89.5 37q53 0 88 -36t35 -85q0 -58 -34.5 -93.5t-88.5 -35.5t-89 31t-36 88zM58 30q0 27 12 36l57 10q32 5 48 11.5t29.5 18t18.5 37t7.5 60t2.5 96.5v754q0 62 -2.5 96.5t-7.5 60t-18.5 37t-29.5 18t-48 11.5l-57 10q-12 9 -12 36t12 36 q166 -6 311 -6q143 0 309 6q12 -9 12 -36t-12 -36l-57 -10q-51 -9 -71 -24t-28 -57t-8 -142v-754q0 -100 8 -142t28 -57t71 -24l57 -10q12 -9 11 -36t-13 -36q-166 6 -307 6q-145 0 -311 -6q-12 9 -12 36zM471 1577q0 57 35.5 94t89.5 37q53 0 88 -36t35 -85 q0 -58 -34.5 -93.5t-88.5 -35.5t-89 31t-36 88z" />
<glyph unicode="&#xd0;" horiz-adv-x="1644" d="M59 701.5q0 33.5 15 56.5h172v262q0 153 -15.5 195t-83.5 49l-38 4q-16 7 -15 38.5t19 32.5q327 19 549 19q289 0 477 -68q196 -70 305.5 -233t109.5 -361q0 -206 -95 -365.5t-271 -246.5q-191 -96 -518 -96q-51 0 -145 6t-128 6q-143 0 -319 -6q-12 9 -12 36.5t12 35.5 l63 10q38 6 56 13t30.5 31.5t15.5 62t3 112.5v354h-172q-15 19 -15 52.5zM539 371q0 -96 7.5 -148t33.5 -82q53 -59 170 -59q102 0 184.5 35.5t136 93t89 136t50.5 160.5t15 169q0 280 -145.5 434t-420.5 154q-86 0 -106 -27q-14 -19 -14 -119v-360h274q17 -18 16 -54 t-16 -55h-274v-278z" />
<glyph unicode="&#xd1;" horiz-adv-x="1531" d="M28.5 1326q2.5 28 16.5 32q144 -6 283 -6q108 0 172 6q13 -59 86.5 -157.5t225.5 -279.5q17 -20 26 -30l172 -203q163 -192 196 -225q8 20 8 92v283q0 302 -30 374q-22 52 -119 66l-55 8q-11 13 -10.5 37.5t10.5 34.5q166 -6 274 -6q109 0 229 6q10 -10 10.5 -34.5 t-10.5 -37.5l-36 -6q-88 -13 -111 -68q-31 -74 -31 -374v-490q0 -262 4 -330q-10 -19 -46.5 -33t-73.5 -14q-1 0 -21 29.5t-61.5 86t-83.5 108.5l-473 585q-19 23 -47.5 58t-43 53t-35.5 43t-32.5 38.5t-25 29t-23 24.5t-17.5 16q-10 -20 -10 -131v-397q0 -301 31 -375 q21 -50 119 -65l57 -8q11 -13 10.5 -37.5t-10.5 -34.5q-167 6 -274 6q-113 0 -230 -6q-10 10 -10.5 34.5t10.5 37.5l35 6q47 9 74.5 23t38.5 44q28 67 28 375v520q0 140 -14 174q-26 57 -117 70l-57 8q-11 12 -8.5 40zM539 1425q12 43 40 105t52 92q29 33 60 46t77 13h127 q57 0 92.5 20.5t59.5 80.5q22 5 43 2t28 -12q-28 -117 -76 -185q-25 -34 -53 -46.5t-82 -12.5h-104q-74 0 -114 -24.5t-79 -90.5q-15 -8 -39.5 -4.5t-31.5 16.5z" />
<glyph unicode="&#xd2;" horiz-adv-x="1613" d="M82 666q0 151 54.5 283.5t150 228t232 151t294.5 55.5q211 0 374.5 -88.5t254 -248t90.5 -365.5q0 -220 -93 -382.5t-259.5 -247.5t-386.5 -85q-205 0 -366 84.5t-253 244.5t-92 370zM410 713q0 -82 11 -164.5t41 -172.5t76 -158t121.5 -112.5t171.5 -44.5q98 0 171 45.5 t116.5 127.5t64.5 187.5t21 233.5q0 176 -48 319.5t-141.5 229.5t-217.5 86q-185 0 -286 -157t-101 -420zM485 1628q-10 35 21 88q34 64 69 64q24 0 68 -31l332 -242q4 -12 -3.5 -31t-19.5 -30l-401 131q-57 17 -66 51z" />
<glyph unicode="&#xd3;" horiz-adv-x="1613" d="M82 666q0 151 54.5 283.5t150 228t232 151t294.5 55.5q211 0 374.5 -88.5t254 -248t90.5 -365.5q0 -220 -93 -382.5t-259.5 -247.5t-386.5 -85q-205 0 -366 84.5t-253 244.5t-92 370zM410 713q0 -82 11 -164.5t41 -172.5t76 -158t121.5 -112.5t171.5 -44.5q98 0 171 45.5 t116.5 127.5t64.5 187.5t21 233.5q0 176 -48 319.5t-141.5 229.5t-217.5 86q-185 0 -286 -157t-101 -420zM657 1497l332 248q46 35 68 35q35 0 69 -64q31 -53 21 -88q-9 -34 -66 -51l-401 -131q-13 5 -20 19.5t-3 31.5z" />
<glyph unicode="&#xd4;" horiz-adv-x="1613" d="M82 666q0 151 54.5 283.5t150 228t232 151t294.5 55.5q211 0 374.5 -88.5t254 -248t90.5 -365.5q0 -220 -93 -382.5t-259.5 -247.5t-386.5 -85q-205 0 -366 84.5t-253 244.5t-92 370zM410 713q0 -82 11 -164.5t41 -172.5t76 -158t121.5 -112.5t171.5 -44.5q98 0 171 45.5 t116.5 127.5t64.5 187.5t21 233.5q0 176 -48 319.5t-141.5 229.5t-217.5 86q-185 0 -286 -157t-101 -420zM510 1495l260 244q22 21 48 21t48 -21l260 -244q6 -16 -4 -31.5t-22 -17.5l-248 102q-36 19 -68 2l-245 -104q-14 0 -24.5 16t-4.5 33z" />
<glyph unicode="&#xd5;" horiz-adv-x="1613" d="M82 666q0 151 54.5 283.5t150 228t232 151t294.5 55.5q211 0 374.5 -88.5t254 -248t90.5 -365.5q0 -220 -93 -382.5t-259.5 -247.5t-386.5 -85q-205 0 -366 84.5t-253 244.5t-92 370zM410 713q0 -82 11 -164.5t41 -172.5t76 -158t121.5 -112.5t171.5 -44.5q98 0 171 45.5 t116.5 127.5t64.5 187.5t21 233.5q0 176 -48 319.5t-141.5 229.5t-217.5 86q-185 0 -286 -157t-101 -420zM518 1425q10 42 38 104.5t54 92.5q53 61 138 61h126q59 0 94.5 20t59.5 81q20 5 42 2t28 -12q-22 -112 -74 -187q-23 -34 -53 -46.5t-84 -12.5h-105q-74 0 -113.5 -25 t-78.5 -92q-17 -7 -41.5 -3t-30.5 17z" />
<glyph unicode="&#xd6;" horiz-adv-x="1613" d="M82 666q0 151 54.5 283.5t150 228t232 151t294.5 55.5q211 0 374.5 -88.5t254 -248t90.5 -365.5q0 -220 -93 -382.5t-259.5 -247.5t-386.5 -85q-205 0 -366 84.5t-253 244.5t-92 370zM410 713q0 -82 11 -164.5t41 -172.5t76 -158t121.5 -112.5t171.5 -44.5q98 0 171 45.5 t116.5 127.5t64.5 187.5t21 233.5q0 176 -48 319.5t-141.5 229.5t-217.5 86q-185 0 -286 -157t-101 -420zM469 1577q0 57 35.5 94t89.5 37q53 0 88 -36t35 -85q0 -58 -34.5 -93.5t-88.5 -35.5t-89 31t-36 88zM897 1577q0 57 35.5 94t89.5 37q53 0 88 -36t35 -85 q0 -58 -34.5 -93.5t-88.5 -35.5t-89 31t-36 88z" />
<glyph unicode="&#xd7;" d="M129 119l295 297l-295 297l104 110l299 -299l299 303l107 -108l-299 -301l299 -299l-107 -111l-301 301l-297 -301z" />
<glyph unicode="&#xd8;" horiz-adv-x="1613" d="M82 666q0 151 54.5 283.5t150 228t232 151t294.5 55.5q207 0 365 -79l88 122q28 2 56.5 -16t35.5 -43l-86 -121q124 -92 192 -237.5t68 -329.5q0 -219 -93 -381t-259.5 -247t-386.5 -85q-208 0 -365 86l-100 -141q-26 -2 -54 18t-34 47l94 134q-120 93 -186 235t-66 320z M410 713q0 -225 73 -391l584 825q-108 143 -270 143q-185 0 -286 -157t-101 -420zM543 215q105 -154 288 -154q98 0 171 45.5t116.5 127.5t64.5 187.5t21 233.5q0 228 -78 387z" />
<glyph unicode="&#xd9;" horiz-adv-x="1515" d="M55.5 1323q0.5 26 16.5 35q147 -6 299 -6t299 6q12 -9 12 -35t-12 -35l-49 -8q-31 -5 -47 -11.5t-29.5 -18.5t-18.5 -37.5t-7.5 -60t-2.5 -95.5v-473q0 -59 2.5 -104t10.5 -100t22 -95.5t39.5 -81t60.5 -66t86.5 -41.5t116.5 -16q342 0 342 510v248q0 303 -31 374 q-12 29 -40.5 43t-77.5 23l-56 10q-11 13 -10.5 36.5t10.5 33.5q167 -6 275 -6q112 0 229 6q10 -10 10.5 -33.5t-10.5 -36.5l-37 -8q-46 -10 -72 -24t-38 -44q-31 -71 -31 -374v-230q0 -168 -26.5 -287.5t-104.5 -205.5q-67 -71 -173.5 -109.5t-232.5 -38.5q-263 0 -405 115 q-152 126 -152 463v512q0 61 -2.5 95t-7 59t-18.5 36.5t-29.5 18t-46.5 12.5l-51 10q-13 9 -12.5 35zM436 1628q-10 35 21 88q34 64 69 64q24 0 68 -31l332 -242q4 -12 -3.5 -31t-19.5 -30l-401 131q-57 17 -66 51z" />
<glyph unicode="&#xda;" horiz-adv-x="1515" d="M55.5 1323q0.5 26 16.5 35q147 -6 299 -6t299 6q12 -9 12 -35t-12 -35l-49 -8q-31 -5 -47 -11.5t-29.5 -18.5t-18.5 -37.5t-7.5 -60t-2.5 -95.5v-473q0 -59 2.5 -104t10.5 -100t22 -95.5t39.5 -81t60.5 -66t86.5 -41.5t116.5 -16q342 0 342 510v248q0 303 -31 374 q-12 29 -40.5 43t-77.5 23l-56 10q-11 13 -10.5 36.5t10.5 33.5q167 -6 275 -6q112 0 229 6q10 -10 10.5 -33.5t-10.5 -36.5l-37 -8q-46 -10 -72 -24t-38 -44q-31 -71 -31 -374v-230q0 -168 -26.5 -287.5t-104.5 -205.5q-67 -71 -173.5 -109.5t-232.5 -38.5q-263 0 -405 115 q-152 126 -152 463v512q0 61 -2.5 95t-7 59t-18.5 36.5t-29.5 18t-46.5 12.5l-51 10q-13 9 -12.5 35zM690 1497l332 248q46 35 68 35q35 0 69 -64q31 -53 21 -88q-9 -34 -66 -51l-401 -131q-13 5 -20 19.5t-3 31.5z" />
<glyph unicode="&#xdb;" horiz-adv-x="1515" d="M55.5 1323q0.5 26 16.5 35q147 -6 299 -6t299 6q12 -9 12 -35t-12 -35l-49 -8q-31 -5 -47 -11.5t-29.5 -18.5t-18.5 -37.5t-7.5 -60t-2.5 -95.5v-473q0 -59 2.5 -104t10.5 -100t22 -95.5t39.5 -81t60.5 -66t86.5 -41.5t116.5 -16q342 0 342 510v248q0 303 -31 374 q-12 29 -40.5 43t-77.5 23l-56 10q-11 13 -10.5 36.5t10.5 33.5q167 -6 275 -6q112 0 229 6q10 -10 10.5 -33.5t-10.5 -36.5l-37 -8q-46 -10 -72 -24t-38 -44q-31 -71 -31 -374v-230q0 -168 -26.5 -287.5t-104.5 -205.5q-67 -71 -173.5 -109.5t-232.5 -38.5q-263 0 -405 115 q-152 126 -152 463v512q0 61 -2.5 95t-7 59t-18.5 36.5t-29.5 18t-46.5 12.5l-51 10q-13 9 -12.5 35zM487 1493l248 231q47 43 90 0l248 -231q6 -16 -3 -30.5t-21 -16.5l-236 98q-35 15 -65 0l-234 -98q-14 0 -23.5 15t-3.5 32z" />
<glyph unicode="&#xdc;" horiz-adv-x="1515" d="M55.5 1323q0.5 26 16.5 35q147 -6 299 -6t299 6q12 -9 12 -35t-12 -35l-49 -8q-31 -5 -47 -11.5t-29.5 -18.5t-18.5 -37.5t-7.5 -60t-2.5 -95.5v-473q0 -59 2.5 -104t10.5 -100t22 -95.5t39.5 -81t60.5 -66t86.5 -41.5t116.5 -16q342 0 342 510v248q0 303 -31 374 q-12 29 -40.5 43t-77.5 23l-56 10q-11 13 -10.5 36.5t10.5 33.5q167 -6 275 -6q112 0 229 6q10 -10 10.5 -33.5t-10.5 -36.5l-37 -8q-46 -10 -72 -24t-38 -44q-31 -71 -31 -374v-230q0 -168 -26.5 -287.5t-104.5 -205.5q-67 -71 -173.5 -109.5t-232.5 -38.5q-263 0 -405 115 q-152 126 -152 463v512q0 61 -2.5 95t-7 59t-18.5 36.5t-29.5 18t-46.5 12.5l-51 10q-13 9 -12.5 35zM461 1577q0 57 35.5 94t89.5 37q53 0 88 -36t35 -85q0 -58 -34.5 -93.5t-88.5 -35.5t-89 31t-36 88zM889 1577q0 57 35.5 94t89.5 37q53 0 88 -36t35 -85 q0 -58 -34.5 -93.5t-88.5 -35.5t-89 31t-36 88z" />
<glyph unicode="&#xdd;" horiz-adv-x="1177" d="M-53 1326q2 28 20 32q138 -6 289 -6q194 0 299 6q14 -6 15.5 -33t-11.5 -39l-70 -16q-49 -11 -49 -19q0 -22 54 -143l96 -219q32 -70 102 -213q27 45 55 99t70 137.5t51 101.5q99 194 99 231q0 20 -82 33l-39 8q-12 8 -12 36.5t14 35.5q123 -6 229 -6q113 0 201 6 q18 -6 19.5 -34t-11.5 -38l-53 -10q-78 -13 -107 -49q-58 -73 -178 -291l-129 -234q-40 -73 -53.5 -125t-13.5 -139v-143q0 -99 7.5 -140.5t27 -57t69.5 -21.5l82 -10q10 -9 10 -36t-10 -36q-200 6 -332 6q-140 0 -321 -6q-12 9 -12 36t12 36l69 10q31 5 47 10.5t29.5 17 t18.5 37t7.5 59.5t2.5 95v102q0 81 -9 123.5t-47 120.5l-243 504q-34 70 -57.5 95.5t-73.5 33.5l-70 12q-14 12 -12 40zM502 1497l332 248q46 35 67 35q36 0 70 -64q30 -52 20 -88q-9 -34 -65 -51l-402 -131q-13 5 -19.5 19.5t-2.5 31.5z" />
<glyph unicode="&#xde;" horiz-adv-x="1216" d="M59 1322q1 27 19 36q150 -6 305 -6q149 0 305 6q15 -9 15 -36t-15 -36l-57 -10q-31 -5 -46.5 -11t-29.5 -16.5t-19 -33t-7.5 -53.5t-2.5 -85h138q150 0 258 -41q105 -37 170 -121.5t65 -214.5q0 -75 -26 -136.5t-69.5 -102.5t-103 -69.5t-124.5 -41t-136 -12.5 q-6 0 -18 1t-21 1q-14 7 -15.5 25.5t9.5 27.5q110 36 148.5 105.5t38.5 199.5q0 50 -13.5 99t-40 91.5t-70 68.5t-98.5 26q-61 0 -76.5 -19t-15.5 -85v-584q0 -61 2.5 -95t7.5 -59.5t18.5 -37t29.5 -17t47 -10.5l67 -10q12 -9 12 -36t-12 -36q-178 6 -315 6q-141 0 -311 -6 q-12 9 -12 36t12 36l57 10q26 5 40 8.5t27.5 13.5t19 22t10.5 37.5t6 56t1 81.5v762q0 51 -1 81.5t-6 56t-10.5 37.5t-19 22t-27.5 13.5t-40 8.5l-57 10q-14 9 -13 36z" />
<glyph unicode="&#xdf;" horiz-adv-x="1173" d="M33.5 736q-2.5 21 5.5 28l88 45q23 12 34 23t11 30q0 183 53 295q60 131 184.5 219t299.5 88q97 0 173 -25.5t120.5 -68.5t67 -93.5t22.5 -105.5q0 -44 -8.5 -77t-29 -60.5t-39 -45t-54.5 -46.5l-33 -27q-92 -76 -92 -149q0 -21 6.5 -40.5t26 -42.5t29.5 -34.5t44 -42 t43 -39.5q154 -143 154 -286q0 -138 -99 -224t-266 -86q-49 0 -90 10t-73.5 42t-32.5 83q0 41 14.5 73t44.5 32q13 0 37 -22.5t48 -50t57 -50t61 -22.5q31 0 52 24.5t21 67.5q0 92 -122 196q-85 72 -131 134.5t-46 138.5q0 19 2 36.5t7.5 34.5t9 29t14 28.5t15 24.5t18.5 25 t18 21.5t21 23.5t20 22q38 41 60 70t41.5 77.5t19.5 100.5q0 112 -52 181t-126 69q-115 0 -179.5 -133t-64.5 -371v-628q0 -75 5.5 -106t19.5 -43.5t51 -20.5l10 -2q12 -9 11.5 -36t-13.5 -36q-58 6 -221 6q-145 0 -240 -6q-15 9 -15.5 36t11.5 36l33 4q39 4 55 17t21.5 44 t5.5 107v413q0 40 -8 49t-43 9h-76q-9 6 -11.5 27z" />
<glyph unicode="&#xe0;" horiz-adv-x="907" d="M66 186q0 78 50.5 128.5t162.5 84.5q103 33 192 58q45 12 49 41q4 46 4 69q0 69 -29 122.5t-89 53.5q-89 0 -107 -116q-5 -43 -35 -66q-23 -17 -71 -32t-76 -15q-47 0 -47 51q0 38 29 82t69 76q64 50 154.5 87.5t189.5 37.5q276 0 262 -297l-14 -270q-5 -94 24 -135.5 t68 -41.5q32 0 78 25q13 -3 21 -18t3 -29q-27 -35 -93.5 -73t-143.5 -38q-51 0 -89.5 17t-82.5 55q-19 16 -33 16q-12 0 -43 -22q-90 -66 -174 -66q-95 0 -162 56.5t-67 158.5zM193 1292q0 31 55 74q46 33 80 33q33 0 63 -62l187 -372q-6 -39 -52 -33l-288 285 q-45 45 -45 75zM328 227q0 -50 30.5 -86.5t73.5 -36.5q44 0 60 24.5t18 76.5l4 129q2 25 -1 31.5t-13 5.5q-172 -22 -172 -144z" />
<glyph unicode="&#xe1;" horiz-adv-x="907" d="M66 186q0 78 50.5 128.5t162.5 84.5q103 33 192 58q45 12 49 41q4 46 4 69q0 69 -29 122.5t-89 53.5q-89 0 -107 -116q-5 -43 -35 -66q-23 -17 -71 -32t-76 -15q-47 0 -47 51q0 38 29 82t69 76q64 50 154.5 87.5t189.5 37.5q276 0 262 -297l-14 -270q-5 -94 24 -135.5 t68 -41.5q32 0 78 25q13 -3 21 -18t3 -29q-27 -35 -93.5 -73t-143.5 -38q-51 0 -89.5 17t-82.5 55q-19 16 -33 16q-12 0 -43 -22q-90 -66 -174 -66q-95 0 -162 56.5t-67 158.5zM328 227q0 -50 30.5 -86.5t73.5 -36.5q44 0 60 24.5t18 76.5l4 129q2 25 -1 31.5t-13 5.5 q-172 -22 -172 -144zM381 948l186 373q30 61 64 61q35 0 80 -32q55 -43 55 -74t-45 -76l-289 -285q-45 -6 -51 33z" />
<glyph unicode="&#xe2;" horiz-adv-x="907" d="M66 186q0 78 50.5 128.5t162.5 84.5q103 33 192 58q45 12 49 41q4 46 4 69q0 69 -29 122.5t-89 53.5q-89 0 -107 -116q-5 -43 -35 -66q-23 -17 -71 -32t-76 -15q-47 0 -47 51q0 38 29 82t69 76q64 50 154.5 87.5t189.5 37.5q276 0 262 -297l-14 -270q-5 -94 24 -135.5 t68 -41.5q32 0 78 25q13 -3 21 -18t3 -29q-27 -35 -93.5 -73t-143.5 -38q-51 0 -89.5 17t-82.5 55q-19 16 -33 16q-12 0 -43 -22q-90 -66 -174 -66q-95 0 -162 56.5t-67 158.5zM190 958l218 392q9 17 18 21.5t29 4.5t29 -4.5t18 -21.5l217 -392q-13 -32 -60 -36l-163 188 q-33 39 -41 39q-9 0 -43 -37l-164 -190q-45 5 -58 36zM328 227q0 -50 30.5 -86.5t73.5 -36.5q44 0 60 24.5t18 76.5l4 129q2 25 -1 31.5t-13 5.5q-172 -22 -172 -144z" />
<glyph unicode="&#xe3;" horiz-adv-x="907" d="M66 186q0 78 50.5 128.5t162.5 84.5q103 33 192 58q45 12 49 41q4 46 4 69q0 69 -29 122.5t-89 53.5q-89 0 -107 -116q-5 -43 -35 -66q-23 -17 -71 -32t-76 -15q-47 0 -47 51q0 38 29 82t69 76q64 50 154.5 87.5t189.5 37.5q276 0 262 -297l-14 -270q-5 -94 24 -135.5 t68 -41.5q32 0 78 25q13 -3 21 -18t3 -29q-27 -35 -93.5 -73t-143.5 -38q-51 0 -89.5 17t-82.5 55q-19 16 -33 16q-12 0 -43 -22q-90 -66 -174 -66q-95 0 -162 56.5t-67 158.5zM182 956q12 38 37 95t47 84q26 32 54.5 44.5t70.5 12.5h115q67 0 102 18.5t58 77.5q12 5 33.5 2 t27.5 -12q-18 -101 -68 -176q-22 -32 -48.5 -45t-73.5 -13h-115q-66 0 -106 -25t-70 -75q-9 -7 -33.5 -3t-30.5 15zM328 227q0 -50 30.5 -86.5t73.5 -36.5q44 0 60 24.5t18 76.5l4 129q2 25 -1 31.5t-13 5.5q-172 -22 -172 -144z" />
<glyph unicode="&#xe4;" horiz-adv-x="907" d="M66 186q0 78 50.5 128.5t162.5 84.5q103 33 192 58q45 12 49 41q4 46 4 69q0 69 -29 122.5t-89 53.5q-89 0 -107 -116q-5 -43 -35 -66q-23 -17 -71 -32t-76 -15q-47 0 -47 51q0 38 29 82t69 76q64 50 154.5 87.5t189.5 37.5q276 0 262 -297l-14 -270q-5 -94 24 -135.5 t68 -41.5q32 0 78 25q13 -3 21 -18t3 -29q-27 -35 -93.5 -73t-143.5 -38q-51 0 -89.5 17t-82.5 55q-19 16 -33 16q-12 0 -43 -22q-90 -66 -174 -66q-95 0 -162 56.5t-67 158.5zM143 1108q0 57 36.5 94t92.5 37q53 0 89 -36.5t36 -84.5q0 -59 -35 -95t-90 -36q-56 0 -92 31.5 t-37 89.5zM328 227q0 -50 30.5 -86.5t73.5 -36.5q44 0 60 24.5t18 76.5l4 129q2 25 -1 31.5t-13 5.5q-172 -22 -172 -144zM512 1108q0 57 36.5 94t92.5 37q53 0 89 -36.5t36 -84.5q0 -59 -35 -95t-90 -36q-56 0 -92 31.5t-37 89.5z" />
<glyph unicode="&#xe5;" horiz-adv-x="907" d="M66 186q0 78 50.5 128.5t162.5 84.5q103 33 192 58q45 12 49 41q4 46 4 69q0 69 -29 122.5t-89 53.5q-89 0 -107 -116q-5 -43 -35 -66q-23 -17 -71 -32t-76 -15q-47 0 -47 51q0 38 29 82t69 76q64 50 154.5 87.5t189.5 37.5q276 0 262 -297l-14 -270q-5 -94 24 -135.5 t68 -41.5q32 0 78 25q13 -3 21 -18t3 -29q-27 -35 -93.5 -73t-143.5 -38q-51 0 -89.5 17t-82.5 55q-19 16 -33 16q-12 0 -43 -22q-90 -66 -174 -66q-95 0 -162 56.5t-67 158.5zM233 1141q0 80 61.5 140t160.5 60q100 0 160.5 -59.5t60.5 -140.5t-60.5 -142t-160.5 -61 q-99 0 -160.5 61t-61.5 142zM328 227q0 -50 30.5 -86.5t73.5 -36.5q44 0 60 24.5t18 76.5l4 129q2 25 -1 31.5t-13 5.5q-172 -22 -172 -144zM356 1141q0 -53 26.5 -89t72.5 -36t72 36t26 89t-26 89.5t-72 39.5q-46 -3 -72.5 -39.5t-26.5 -89.5z" />
<glyph unicode="&#xe6;" horiz-adv-x="1284" d="M66 190q0 152 204 211l213 62q17 4 22 14.5t5 38.5v23q0 30 -0.5 46.5t-3.5 45t-10 44.5t-18.5 34t-31 26t-45.5 8q-86 0 -104 -116q-5 -43 -35 -66q-22 -17 -70.5 -32t-74.5 -15q-22 0 -34.5 14t-12.5 35q0 38 28.5 82t71.5 80q62 49 148 86t167 37q140 0 205 -90 q109 90 277 90q130 0 214.5 -68t84.5 -149q0 -32 -16 -48.5t-54 -25.5l-403 -108q-23 -6 -29 -14.5t-6 -37.5q0 -121 71.5 -194.5t202.5 -73.5q121 0 191 115q45 0 51 -41q-53 -122 -150.5 -177t-218.5 -55q-100 0 -175.5 33t-115.5 88q-13 17 -22 17q-3 0 -29 -15 q-9 -6 -34.5 -24t-34 -23.5t-31 -20t-33.5 -19.5t-31.5 -14t-36 -12.5t-35.5 -6.5t-40 -3q-83 0 -152 61t-69 158zM322 227q0 -55 32 -86.5t72 -31.5t62 25.5t22 74.5v135q0 29 -21 29q-35 -3 -88 -27q-79 -34 -79 -119zM764 588q0 -32 7.5 -40t33.5 -1l168 45q26 7 34.5 17 t8.5 32q0 49 -29.5 81t-75.5 32q-63 0 -105 -52.5t-42 -113.5z" />
<glyph unicode="&#xe7;" horiz-adv-x="851" d="M63 385q0 141 71 248t186 161t255 54q120 0 216 -35q43 -37 43 -106q0 -45 -17.5 -81t-36.5 -36q-25 0 -32 10q-46 67 -102.5 110.5t-108.5 43.5q-94 0 -149.5 -89t-55.5 -204q0 -83 33 -156t101.5 -121.5t158.5 -48.5q122 0 182 101q21 2 37 -10.5t16 -35.5 q-35 -78 -115 -140.5t-194 -74.5l-59 -81q-12 -15 -8.5 -23.5t26.5 -20.5q125 -67 125 -174q0 -82 -78 -136t-182 -54q-74 0 -116 23.5t-42 66.5q0 28 18.5 48t47.5 20q30 0 74 -38t65 -38q19 0 36 14t17 37q0 45 -45 82.5t-111 65.5l-6 16l131 192q-171 15 -276 128 t-105 282z" />
<glyph unicode="&#xe8;" horiz-adv-x="860" d="M66 389q0 195 125.5 327t316.5 132q153 0 240.5 -85t87.5 -210q0 -33 -15 -50.5t-59 -17.5h-393q-35 0 -43.5 -5.5t-8.5 -30.5q0 -124 77 -214t212 -90q128 0 191 107q19 3 36 -9.5t17 -37.5q-40 -83 -103 -137.5t-126 -75.5t-129 -21q-133 0 -231.5 58.5t-146.5 152 t-48 207.5zM209 1296q0 31 55 74q46 33 80 33t64 -62l186 -372q-6 -39 -51 -33l-289 285q-45 45 -45 75zM334 606q0 -20 19.5 -25.5t74.5 -5.5h76q53 0 84 19q14 8 14 47q0 52 -28 82.5t-80 30.5q-62 0 -111 -48t-49 -100z" />
<glyph unicode="&#xe9;" horiz-adv-x="860" d="M66 389q0 195 125.5 327t316.5 132q153 0 240.5 -85t87.5 -210q0 -33 -15 -50.5t-59 -17.5h-393q-35 0 -43.5 -5.5t-8.5 -30.5q0 -124 77 -214t212 -90q128 0 191 107q19 3 36 -9.5t17 -37.5q-40 -83 -103 -137.5t-126 -75.5t-129 -21q-133 0 -231.5 58.5t-146.5 152 t-48 207.5zM334 606q0 -20 19.5 -25.5t74.5 -5.5h76q53 0 84 19q14 8 14 47q0 52 -28 82.5t-80 30.5q-62 0 -111 -48t-49 -100zM408 961l186 372q30 62 63 62q34 0 80 -33q56 -44 56 -74q0 -31 -45 -76l-289 -284q-45 -6 -51 33z" />
<glyph unicode="&#xea;" horiz-adv-x="860" d="M66 389q0 195 125.5 327t316.5 132q153 0 240.5 -85t87.5 -210q0 -33 -15 -50.5t-59 -17.5h-393q-35 0 -43.5 -5.5t-8.5 -30.5q0 -124 77 -214t212 -90q128 0 191 107q19 3 36 -9.5t17 -37.5q-40 -83 -103 -137.5t-126 -75.5t-129 -21q-133 0 -231.5 58.5t-146.5 152 t-48 207.5zM211 948l217 391q9 17 18.5 22t28.5 5t28.5 -5t18.5 -22l217 -391q-13 -33 -59 -37l-164 189q-33 39 -41 39q-9 0 -43 -37l-164 -191q-44 4 -57 37zM334 606q0 -20 19.5 -25.5t74.5 -5.5h76q53 0 84 19q14 8 14 47q0 52 -28 82.5t-80 30.5q-62 0 -111 -48 t-49 -100z" />
<glyph unicode="&#xeb;" horiz-adv-x="860" d="M66 389q0 195 125.5 327t316.5 132q153 0 240.5 -85t87.5 -210q0 -33 -15 -50.5t-59 -17.5h-393q-35 0 -43.5 -5.5t-8.5 -30.5q0 -124 77 -214t212 -90q128 0 191 107q19 3 36 -9.5t17 -37.5q-40 -83 -103 -137.5t-126 -75.5t-129 -21q-133 0 -231.5 58.5t-146.5 152 t-48 207.5zM160 1108q0 57 36.5 94t92.5 37q53 0 89 -36.5t36 -84.5q0 -59 -35 -95t-90 -36q-56 0 -92 31.5t-37 89.5zM334 606q0 -20 19.5 -25.5t74.5 -5.5h76q53 0 84 19q14 8 14 47q0 52 -28 82.5t-80 30.5q-62 0 -111 -48t-49 -100zM528 1108q0 57 36.5 94t92.5 37 q53 0 89 -36.5t36 -84.5q0 -59 -35 -95t-90 -36q-56 0 -92 31.5t-37 89.5z" />
<glyph unicode="&#xec;" horiz-adv-x="585" d="M29 1296q0 31 55 74q46 33 80 33q33 0 63 -62l187 -372q-6 -39 -52 -33l-288 285q-45 45 -45 75zM45.5 30q-0.5 27 11.5 36l39 4q51 4 63.5 32t12.5 136v309q0 67 -6 90t-33 41l-29 18q-10 9 -10 31t10 31q76 21 168 56.5t136 62.5q23 0 36 -19q-6 -91 -6 -244v-376 q0 -108 12.5 -136t63.5 -32l39 -4q12 -9 11.5 -36t-13.5 -36q-108 6 -246 6q-144 0 -246 -6q-13 9 -13.5 36z" />
<glyph unicode="&#xed;" horiz-adv-x="585" d="M45.5 30q-0.5 27 11.5 36l39 4q51 4 63.5 32t12.5 136v309q0 67 -6 90t-33 41l-29 18q-10 9 -10 31t10 31q76 21 168 56.5t136 62.5q23 0 36 -19q-6 -91 -6 -244v-376q0 -108 12.5 -136t63.5 -32l39 -4q12 -9 11.5 -36t-13.5 -36q-108 6 -246 6q-144 0 -246 -6 q-13 9 -13.5 36zM197 963l186 372q30 62 63 62q34 0 80 -33q56 -44 56 -74q0 -31 -45 -76l-289 -284q-45 -6 -51 33z" />
<glyph unicode="&#xee;" horiz-adv-x="585" d="M29 969l217 391q9 17 18 21.5t29 4.5t29 -4.5t18 -21.5l217 -391q-13 -33 -59 -37l-164 188q-33 39 -41 39q-9 0 -43 -37l-164 -190q-44 4 -57 37zM45.5 30q-0.5 27 11.5 36l39 4q51 4 63.5 32t12.5 136v309q0 67 -6 90t-33 41l-29 18q-10 9 -10 31t10 31q76 21 168 56.5 t136 62.5q23 0 36 -19q-6 -91 -6 -244v-376q0 -108 12.5 -136t63.5 -32l39 -4q12 -9 11.5 -36t-13.5 -36q-108 6 -246 6q-144 0 -246 -6q-13 9 -13.5 36z" />
<glyph unicode="&#xef;" horiz-adv-x="585" d="M-18 1108q0 57 36.5 94t92.5 37q53 0 89 -36.5t36 -84.5q0 -59 -35 -95t-90 -36q-56 0 -92 31.5t-37 89.5zM45.5 30q-0.5 27 11.5 36l39 4q51 4 63.5 32t12.5 136v309q0 67 -6 90t-33 41l-29 18q-10 9 -10 31t10 31q76 21 168 56.5t136 62.5q23 0 36 -19q-6 -91 -6 -244 v-376q0 -108 12.5 -136t63.5 -32l39 -4q12 -9 11.5 -36t-13.5 -36q-108 6 -246 6q-144 0 -246 -6q-13 9 -13.5 36zM350 1108q0 57 36.5 94t92.5 37q53 0 89 -36.5t36 -84.5q0 -59 -35 -95t-90 -36q-56 0 -92 31.5t-37 89.5z" />
<glyph unicode="&#xf0;" horiz-adv-x="1056" d="M63 393q-1 141 68 246.5t178 157t240 51.5q78 0 137 -25q-12 109 -108 260l-295 -143q-27 11 -35.5 44t2.5 54l268 129q-77 99 -178 162q-97 59 -168 68q-17 8 -18.5 33.5t20.5 33.5q171 0 305 -65q114 -53 213 -144l275 131q24 -10 35.5 -41t3.5 -55l-236 -112 q58 -68 102 -142q65 -112 94 -233t29 -225q0 -134 -25.5 -238.5t-69 -173t-106.5 -113t-134 -63.5t-154 -19q-88 0 -166.5 26.5t-140.5 77.5t-98.5 133t-37.5 185zM358 408q0 -154 48.5 -248t136.5 -94q90 0 131 127q38 118 35 374q-2 92 -50 140q-50 47 -108 47 q-84 0 -138.5 -84t-54.5 -262z" />
<glyph unicode="&#xf1;" horiz-adv-x="1126" d="M45.5 30q-0.5 27 11.5 36l33 4q39 4 55 17t21.5 44t5.5 107v309q0 67 -6 90t-33 41l-29 18q-10 9 -10 31t10 31q77 22 169.5 57.5t134.5 61.5q23 0 36 -19q0 -16 -3 -51.5t-3 -40.5q0 -16 11 -16q6 0 38 16q137 82 236 82q122 0 189 -73.5t67 -184.5v-352q0 -76 5.5 -107 t21.5 -44t55 -17l33 -4q12 -9 11.5 -36t-13.5 -36q-94 6 -248 6q-132 0 -221 -6q-13 9 -13.5 36t11.5 36l36 6q36 6 46 29t10 106v346q0 64 -35.5 104.5t-108.5 40.5q-40 0 -70 -14.5t-44 -34.5q-17 -20 -17 -76v-366q0 -84 10.5 -108t49.5 -29l32 -4q12 -9 11.5 -36 t-13.5 -36q-95 6 -227 6q-134 0 -242 -6q-13 9 -13.5 36zM279 973q11 38 37.5 97.5t50.5 88.5q28 34 58 48t73 14h120q70 0 106.5 19t61.5 81q12 5 35 2t29 -12q-18 -107 -70 -187q-23 -34 -51 -46.5t-78 -12.5h-121q-69 0 -111 -25.5t-73 -78.5q-10 -8 -35.5 -4.5 t-31.5 16.5z" />
<glyph unicode="&#xf2;" horiz-adv-x="1056" d="M63 393q-1 106 38.5 194t106 144t151 86.5t176.5 30.5t174 -28t145.5 -81t101 -137.5t37.5 -189.5q0 -109 -38 -194.5t-103.5 -138.5t-149.5 -80.5t-180 -27.5q-93 0 -174.5 26.5t-145.5 77.5t-101 133t-38 185zM227 1284q0 30 56 74q46 33 79 33q34 0 64 -62l186 -373 q-6 -38 -51 -32l-289 284q-45 45 -45 76zM358 438q0 -165 50 -268.5t137 -103.5q156 0 153 317q-1 103 -20 185t-59.5 134t-96.5 52q-72 0 -118 -78.5t-46 -237.5z" />
<glyph unicode="&#xf3;" horiz-adv-x="1056" d="M63 393q-1 106 38.5 194t106 144t151 86.5t176.5 30.5t174 -28t145.5 -81t101 -137.5t37.5 -189.5q0 -109 -38 -194.5t-103.5 -138.5t-149.5 -80.5t-180 -27.5q-93 0 -174.5 26.5t-145.5 77.5t-101 133t-38 185zM358 438q0 -165 50 -268.5t137 -103.5q156 0 153 317 q-1 103 -20 185t-59.5 134t-96.5 52q-72 0 -118 -78.5t-46 -237.5zM418 958l186 373q30 62 64 62t80 -33q55 -43 55 -74t-45 -76l-289 -284q-45 -6 -51 32z" />
<glyph unicode="&#xf4;" horiz-adv-x="1056" d="M63 393q-1 106 38.5 194t106 144t151 86.5t176.5 30.5t174 -28t145.5 -81t101 -137.5t37.5 -189.5q0 -109 -38 -194.5t-103.5 -138.5t-149.5 -80.5t-180 -27.5q-93 0 -174.5 26.5t-145.5 77.5t-101 133t-38 185zM264 948l217 391q9 17 18.5 22t28.5 5t28.5 -5t18.5 -22 l218 -391q-13 -33 -60 -37l-164 189q-33 39 -41 39q-9 0 -43 -37l-163 -191q-45 5 -58 37zM358 438q0 -165 50 -268.5t137 -103.5q156 0 153 317q-1 103 -20 185t-59.5 134t-96.5 52q-72 0 -118 -78.5t-46 -237.5z" />
<glyph unicode="&#xf5;" horiz-adv-x="1056" d="M63 393q-1 106 38.5 194t106 144t151 86.5t176.5 30.5t174 -28t145.5 -81t101 -137.5t37.5 -189.5q0 -109 -38 -194.5t-103.5 -138.5t-149.5 -80.5t-180 -27.5q-93 0 -174.5 26.5t-145.5 77.5t-101 133t-38 185zM256 956q12 38 37 95t47 84q26 32 54.5 44.5t70.5 12.5 h115q67 0 101.5 18.5t57.5 77.5q12 5 34 2t28 -12q-18 -101 -68 -176q-22 -32 -49 -45t-74 -13h-114q-66 0 -106.5 -25t-70.5 -75q-9 -7 -33 -3t-30 15zM358 438q0 -165 50 -268.5t137 -103.5q156 0 153 317q-1 103 -20 185t-59.5 134t-96.5 52q-72 0 -118 -78.5t-46 -237.5 z" />
<glyph unicode="&#xf6;" horiz-adv-x="1056" d="M63 393q-1 106 38.5 194t106 144t151 86.5t176.5 30.5t174 -28t145.5 -81t101 -137.5t37.5 -189.5q0 -109 -38 -194.5t-103.5 -138.5t-149.5 -80.5t-180 -27.5q-93 0 -174.5 26.5t-145.5 77.5t-101 133t-38 185zM217 1108q0 57 36.5 94t92.5 37q53 0 89 -36.5t36 -84.5 q0 -59 -35 -95t-90 -36q-56 0 -92 31.5t-37 89.5zM358 438q0 -165 50 -268.5t137 -103.5q156 0 153 317q-1 103 -20 185t-59.5 134t-96.5 52q-72 0 -118 -78.5t-46 -237.5zM586 1108q0 57 36.5 94t92.5 37q53 0 89 -36.5t36 -84.5q0 -59 -35 -95t-90 -36q-56 0 -92 31.5 t-37 89.5z" />
<glyph unicode="&#xf7;" d="M123 362v148h821v-148h-821zM410 145q0 51 36.5 87t88.5 36q48 0 84 -36.5t36 -86.5q0 -52 -36 -88.5t-84 -36.5q-53 0 -89 36t-36 89zM410 729q0 51 36.5 87t88.5 36q48 0 84 -36.5t36 -86.5q0 -52 -36 -88.5t-84 -36.5q-53 0 -89 36t-36 89z" />
<glyph unicode="&#xf8;" horiz-adv-x="1056" d="M63 393q-1 106 38.5 194t106 144t151 86.5t176.5 30.5q132 0 219 -47l71 98q26 -2 46 -16t26 -37l-68 -90q164 -118 164 -344q0 -109 -38 -194.5t-103.5 -138.5t-149.5 -80.5t-180 -27.5q-130 0 -221 47l-84 -114q-58 9 -70 53l78 104q-159 114 -162 332zM352 438 q0 -95 23 -174l274 393q-44 97 -127 97q-77 0 -123.5 -78.5t-46.5 -237.5zM410 164q20 -46 55.5 -72t79.5 -26q163 0 160 317q0 89 -21 172z" />
<glyph unicode="&#xf9;" horiz-adv-x="1114" d="M61 760.5q2 24.5 17 34.5q111 3 198 18q27 4 57.5 13t50 15.5t22.5 6.5q8 0 15 -8t9 -17q-6 -76 -6 -180v-338q0 -43 4.5 -71.5t18.5 -56.5t44.5 -42t77.5 -14q55 0 107 39q22 16 22 61v387q0 62 -16.5 83t-71.5 28l-28 4q-13 10 -10.5 38t20.5 34q87 5 213 20 q31 4 65 12.5t55 14.5t25 6q6 0 13 -7.5t8 -17.5q-6 -111 -6 -180v-373q0 -98 10 -136t45 -38q29 0 82 17q15 -3 14 -42t-20 -46q-56 -2 -115 -10.5t-104 -19t-81 -20.5t-57 -17t-22 -7q-22 3 -25 24q6 37 6 74q0 9 -6.5 15t-15.5 6q-55 -35 -82.5 -50.5t-82.5 -32 t-114 -16.5q-125 0 -182 64.5t-57 197.5v349q0 78 -11.5 100t-50.5 33l-26 8q-11 13 -9 37.5zM287 1274q0 31 55 74q45 32 80 32q33 0 63 -61l187 -373q-6 -39 -51 -33l-289 285q-45 45 -45 76z" />
<glyph unicode="&#xfa;" horiz-adv-x="1114" d="M61 760.5q2 24.5 17 34.5q111 3 198 18q27 4 57.5 13t50 15.5t22.5 6.5q8 0 15 -8t9 -17q-6 -76 -6 -180v-338q0 -43 4.5 -71.5t18.5 -56.5t44.5 -42t77.5 -14q55 0 107 39q22 16 22 61v387q0 62 -16.5 83t-71.5 28l-28 4q-13 10 -10.5 38t20.5 34q87 5 213 20 q31 4 65 12.5t55 14.5t25 6q6 0 13 -7.5t8 -17.5q-6 -111 -6 -180v-373q0 -98 10 -136t45 -38q29 0 82 17q15 -3 14 -42t-20 -46q-56 -2 -115 -10.5t-104 -19t-81 -20.5t-57 -17t-22 -7q-22 3 -25 24q6 37 6 74q0 9 -6.5 15t-15.5 6q-55 -35 -82.5 -50.5t-82.5 -32 t-114 -16.5q-125 0 -182 64.5t-57 197.5v349q0 78 -11.5 100t-50.5 33l-26 8q-11 13 -9 37.5zM461 969l186 372q30 62 64 62t80 -33q55 -43 55 -74q0 -30 -45 -75l-289 -285q-45 -6 -51 33z" />
<glyph unicode="&#xfb;" horiz-adv-x="1114" d="M61 760.5q2 24.5 17 34.5q111 3 198 18q27 4 57.5 13t50 15.5t22.5 6.5q8 0 15 -8t9 -17q-6 -76 -6 -180v-338q0 -43 4.5 -71.5t18.5 -56.5t44.5 -42t77.5 -14q55 0 107 39q22 16 22 61v387q0 62 -16.5 83t-71.5 28l-28 4q-13 10 -10.5 38t20.5 34q87 5 213 20 q31 4 65 12.5t55 14.5t25 6q6 0 13 -7.5t8 -17.5q-6 -111 -6 -180v-373q0 -98 10 -136t45 -38q29 0 82 17q15 -3 14 -42t-20 -46q-56 -2 -115 -10.5t-104 -19t-81 -20.5t-57 -17t-22 -7q-22 3 -25 24q6 37 6 74q0 9 -6.5 15t-15.5 6q-55 -35 -82.5 -50.5t-82.5 -32 t-114 -16.5q-125 0 -182 64.5t-57 197.5v349q0 78 -11.5 100t-50.5 33l-26 8q-11 13 -9 37.5zM293 967l217 391q9 17 18 21.5t29 4.5t29 -4.5t18 -21.5l217 -391q-13 -33 -59 -37l-164 188q-33 39 -41 39q-9 0 -43 -37l-164 -190q-44 4 -57 37z" />
<glyph unicode="&#xfc;" horiz-adv-x="1114" d="M61 760.5q2 24.5 17 34.5q111 3 198 18q27 4 57.5 13t50 15.5t22.5 6.5q8 0 15 -8t9 -17q-6 -76 -6 -180v-338q0 -43 4.5 -71.5t18.5 -56.5t44.5 -42t77.5 -14q55 0 107 39q22 16 22 61v387q0 62 -16.5 83t-71.5 28l-28 4q-13 10 -10.5 38t20.5 34q87 5 213 20 q31 4 65 12.5t55 14.5t25 6q6 0 13 -7.5t8 -17.5q-6 -111 -6 -180v-373q0 -98 10 -136t45 -38q29 0 82 17q15 -3 14 -42t-20 -46q-56 -2 -115 -10.5t-104 -19t-81 -20.5t-57 -17t-22 -7q-22 3 -25 24q6 37 6 74q0 9 -6.5 15t-15.5 6q-55 -35 -82.5 -50.5t-82.5 -32 t-114 -16.5q-125 0 -182 64.5t-57 197.5v349q0 78 -11.5 100t-50.5 33l-26 8q-11 13 -9 37.5zM246 1108q0 57 36.5 94t92.5 37q53 0 89 -36.5t36 -84.5q0 -59 -35 -95t-90 -36q-56 0 -92 31.5t-37 89.5zM614 1108q0 57 36.5 94t92.5 37q53 0 89 -36.5t36 -84.5 q0 -59 -35 -95t-90 -36q-56 0 -92 31.5t-37 89.5z" />
<glyph unicode="&#xfd;" horiz-adv-x="960" d="M-21.5 791.5q1.5 27.5 15.5 33.5q111 -6 270 -6q116 0 230 6q15 -6 16.5 -33.5t-10.5 -37.5l-41 -9q-40 -8 -51 -15.5t-11 -22.5q0 -7 2 -17t9 -29.5t12 -33.5t18 -48t21 -55q2 -6 39.5 -104.5t52.5 -128.5q18 33 63 135l37 84q76 173 76 207q0 21 -45 28l-41 9 q-14 10 -12.5 38.5t18.5 32.5q67 -6 199 -6q81 0 160 6q15 -6 16.5 -34t-12.5 -37l-39 -4q-66 -6 -94 -45q-48 -63 -121 -216l-109 -223q-39 -79 -158.5 -328t-152.5 -317q-62 -132 -176 -135q-131 -2 -131 123q0 47 31.5 76.5t84.5 29.5h50q68 0 100 43q17 23 59 113 q29 60 29 86q0 50 -39 149l-197 496q-33 82 -54.5 110.5t-67.5 35.5l-37 6q-11 10 -9.5 37.5zM446 956l187 373q30 62 63 62q34 0 80 -33q55 -43 55 -74t-45 -76l-288 -284q-46 -6 -52 32z" />
<glyph unicode="&#xfe;" horiz-adv-x="1091" d="M21.5 -492.5q-0.5 26.5 11.5 35.5l41 4q51 4 63.5 32t12.5 136v1383q0 67 -6 89t-35 40l-35 20q-10 9 -10 31t10 31q101 24 313 114q24 0 35 -14q-6 -126 -6 -299v-326q0 -3 5 -10t11 -8q45 24 70.5 37t81.5 29t108 16q159 0 253.5 -110.5t94.5 -280.5 q0 -216 -138.5 -351t-362.5 -135q-66 0 -93 6q-30 -7 -30 -59v-203q0 -76 5.5 -107t20 -43.5t50.5 -15.5l69 -6q12 -9 11.5 -35.5t-13.5 -35.5q-153 6 -280 6q-133 0 -244 -6q-13 9 -13.5 35.5zM416 231q0 -71 47 -118q44 -47 98 -47q93 0 145 89.5t52 235.5 q0 147 -65 231.5t-169 84.5q-63 0 -86 -29q-22 -26 -22 -119v-328z" />
<glyph unicode="&#xff;" horiz-adv-x="960" d="M-21.5 791.5q1.5 27.5 15.5 33.5q111 -6 270 -6q116 0 230 6q15 -6 16.5 -33.5t-10.5 -37.5l-41 -9q-40 -8 -51 -15.5t-11 -22.5q0 -7 2 -17t9 -29.5t12 -33.5t18 -48t21 -55q2 -6 39.5 -104.5t52.5 -128.5q18 33 63 135l37 84q76 173 76 207q0 21 -45 28l-41 9 q-14 10 -12.5 38.5t18.5 32.5q67 -6 199 -6q81 0 160 6q15 -6 16.5 -34t-12.5 -37l-39 -4q-66 -6 -94 -45q-48 -63 -121 -216l-109 -223q-39 -79 -158.5 -328t-152.5 -317q-62 -132 -176 -135q-131 -2 -131 123q0 47 31.5 76.5t84.5 29.5h50q68 0 100 43q17 23 59 113 q29 60 29 86q0 50 -39 149l-197 496q-33 82 -54.5 110.5t-67.5 35.5l-37 6q-11 10 -9.5 37.5zM201 1128q0 57 36.5 94.5t92.5 37.5q53 0 89 -36.5t36 -84.5q0 -59 -35 -95t-90 -36q-56 0 -92 31t-37 89zM582 1128q0 57 36.5 94.5t92.5 37.5q53 0 89 -36.5t36 -84.5 q0 -59 -35 -95t-90 -36q-56 0 -92 31t-37 89z" />
<glyph unicode="&#x152;" horiz-adv-x="2084" d="M82 647q0 152 55.5 282t160 227.5t268 152.5t368.5 55q78 0 208 -6t189 -6h350q235 0 275 6q1 -13 5 -63t10.5 -123t10.5 -132q-6 -17 -33 -19.5t-42 11.5q-38 119 -78 162q-63 63 -201 63h-164q-50 0 -58.5 -10.5t-8.5 -68.5v-359q0 -43 8 -52t49 -9h141q81 0 109 20 t43 92l10 52q10 12 39.5 11.5t36.5 -13.5q-6 -99 -6 -218q0 -118 6 -217q-8 -14 -36.5 -14.5t-39.5 12.5l-10 52q-15 73 -43 93.5t-109 20.5h-141q-41 0 -49 -8.5t-8 -54.5v-244q0 -149 33 -195q22 -30 65 -41.5t150 -11.5q40 0 62.5 0.5t52.5 4t48 10t41 18t39.5 28.5 t37 42t39.5 58t40 77q12 17 41 13t35 -23q-6 -75 -34 -179t-52 -149q-164 6 -473 6h-205q-84 0 -226.5 -6t-207.5 -6q-193 0 -346.5 50t-252 138.5t-150.5 208.5t-52 262zM412 674q0 -88 19 -172t60.5 -160.5t100.5 -134t145 -91.5t189 -34q96 0 137 33.5t41 132.5v827 q0 83 -14.5 121.5t-49.5 52.5q-56 21 -133 21q-120 0 -215.5 -47t-155.5 -129t-92 -189t-32 -231z" />
<glyph unicode="&#x153;" horiz-adv-x="1515" d="M63 395q-1 106 38.5 193.5t106 143.5t150.5 86t174 30q103 0 189 -41t131 -109q54 66 139 108t172 42q161 0 248.5 -85t87.5 -210q0 -33 -15 -50.5t-59 -17.5h-405q-38 0 -46.5 -6.5t-8.5 -34.5q0 -125 79 -212t218 -87q127 0 194 107q20 0 34.5 -11.5t14.5 -35.5 q-55 -122 -150.5 -178t-203.5 -56q-99 0 -180 37t-131 96q-50 -59 -139 -96t-187 -37q-90 0 -170 27t-143 78.5t-100 133.5t-38 185zM369 438q0 -168 49.5 -270t138.5 -102q159 0 156 317q-1 103 -20 185t-60 134t-98 52q-74 0 -120 -78.5t-46 -237.5zM981 606 q0 -20 20 -25.5t76 -5.5h90q53 0 84 19q15 9 15 47q0 51 -31.5 82t-81.5 31q-64 0 -118 -49.5t-54 -98.5z" />
<glyph unicode="&#x178;" horiz-adv-x="1177" d="M-53 1326q2 28 20 32q138 -6 289 -6q194 0 299 6q14 -6 15.5 -33t-11.5 -39l-70 -16q-49 -11 -49 -19q0 -22 54 -143l96 -219q32 -70 102 -213q27 45 55 99t70 137.5t51 101.5q99 194 99 231q0 20 -82 33l-39 8q-12 8 -12 36.5t14 35.5q123 -6 229 -6q113 0 201 6 q18 -6 19.5 -34t-11.5 -38l-53 -10q-78 -13 -107 -49q-58 -73 -178 -291l-129 -234q-40 -73 -53.5 -125t-13.5 -139v-143q0 -99 7.5 -140.5t27 -57t69.5 -21.5l82 -10q10 -9 10 -36t-10 -36q-200 6 -332 6q-140 0 -321 -6q-12 9 -12 36t12 36l69 10q31 5 47 10.5t29.5 17 t18.5 37t7.5 59.5t2.5 95v102q0 81 -9 123.5t-47 120.5l-243 504q-34 70 -57.5 95.5t-73.5 33.5l-70 12q-14 12 -12 40zM322 1577q0 57 35 94t89 37q53 0 88 -36t35 -85q0 -58 -34.5 -93.5t-88.5 -35.5t-88.5 31t-35.5 88zM750 1577q0 57 35 94t89 37q53 0 88 -36t35 -85 q0 -58 -34.5 -93.5t-88.5 -35.5t-88.5 31t-35.5 88z" />
<glyph unicode="&#x2c6;" horiz-adv-x="778" d="M125 969l217 391q9 17 18 21.5t29 4.5t29 -4.5t18 -21.5l217 -391q-13 -33 -59 -37l-164 178q-36 39 -41 39q-9 0 -43 -37l-164 -180q-44 4 -57 37z" />
<glyph unicode="&#x2dc;" horiz-adv-x="778" d="M117 967q12 38 37 94.5t47 83.5q26 32 54.5 44.5t70.5 12.5h114q67 0 102 18.5t58 77.5q12 5 34 2t28 -12q-18 -101 -68 -176q-22 -32 -49 -44.5t-74 -12.5h-115q-66 0 -106 -25t-70 -76q-9 -7 -33 -2.5t-30 15.5z" />
<glyph unicode="&#x2000;" horiz-adv-x="907" />
<glyph unicode="&#x2001;" horiz-adv-x="1815" />
<glyph unicode="&#x2002;" horiz-adv-x="907" />
<glyph unicode="&#x2003;" horiz-adv-x="1815" />
<glyph unicode="&#x2004;" horiz-adv-x="605" />
<glyph unicode="&#x2005;" horiz-adv-x="453" />
<glyph unicode="&#x2006;" horiz-adv-x="302" />
<glyph unicode="&#x2007;" horiz-adv-x="302" />
<glyph unicode="&#x2008;" horiz-adv-x="226" />
<glyph unicode="&#x2009;" horiz-adv-x="363" />
<glyph unicode="&#x200a;" horiz-adv-x="100" />
<glyph unicode="&#x2010;" horiz-adv-x="671" d="M61 401q0 45 31 84l490 45q28 -31 28 -86q0 -46 -26 -79l-492 -46q-31 31 -31 82z" />
<glyph unicode="&#x2011;" horiz-adv-x="671" d="M61 401q0 45 31 84l490 45q28 -31 28 -86q0 -46 -26 -79l-492 -46q-31 31 -31 82z" />
<glyph unicode="&#x2012;" horiz-adv-x="671" d="M61 401q0 45 31 84l490 45q28 -31 28 -86q0 -46 -26 -79l-492 -46q-31 31 -31 82z" />
<glyph unicode="&#x2013;" horiz-adv-x="1024" d="M0 354v142h1024v-142h-1024z" />
<glyph unicode="&#x2014;" horiz-adv-x="2048" d="M0 354v142h2048v-142h-2048z" />
<glyph unicode="&#x2018;" horiz-adv-x="518" d="M82 1098q0 135 93 225.5t231 122.5q25 -3 31.5 -28.5t-11.5 -35.5q-67 -25 -120.5 -75t-53.5 -115q0 -99 113 -127q27 -8 44 -32t17 -58q0 -53 -41.5 -90t-99.5 -37q-33 0 -67.5 14.5t-65.5 43t-50.5 79t-19.5 113.5z" />
<glyph unicode="&#x2019;" horiz-adv-x="518" d="M81 864q-7 25 11 35q67 24 120.5 75t53.5 116q0 100 -112 127q-27 8 -44.5 32t-17.5 58q0 53 41.5 90t99.5 37q33 0 67.5 -14.5t65.5 -43t50.5 -79t19.5 -113.5q0 -135 -92.5 -225.5t-230.5 -122.5q-25 3 -32 28z" />
<glyph unicode="&#x201a;" horiz-adv-x="518" d="M81 -221.5q-7 25.5 11 35.5q67 25 120.5 75t53.5 115q0 100 -112 127q-27 8 -44.5 32t-17.5 58q0 53 41.5 90t99.5 37q75 0 139 -65t64 -189q0 -137 -91.5 -224.5t-231.5 -119.5q-25 3 -32 28.5z" />
<glyph unicode="&#x201c;" horiz-adv-x="966" d="M82 1098q0 135 93 225.5t231 122.5q25 -3 31.5 -28.5t-11.5 -35.5q-67 -25 -120.5 -75t-53.5 -115q0 -99 113 -127q27 -8 44 -32t17 -58q0 -53 -41.5 -90t-99.5 -37q-33 0 -67.5 14.5t-65.5 43t-50.5 79t-19.5 113.5zM530 1098q0 135 93 225.5t231 122.5 q25 -3 31.5 -28.5t-11.5 -35.5q-67 -25 -120.5 -75t-53.5 -115q0 -99 113 -127q27 -8 44 -32t17 -58q0 -53 -41.5 -90t-99.5 -37q-33 0 -67.5 14.5t-65.5 43t-50.5 79t-19.5 113.5z" />
<glyph unicode="&#x201d;" horiz-adv-x="966" d="M81 864q-7 25 11 35q67 24 120.5 75t53.5 116q0 100 -112 127q-27 8 -44.5 32t-17.5 58q0 53 41.5 90t99.5 37q33 0 67.5 -14.5t65.5 -43t50.5 -79t19.5 -113.5q0 -135 -92.5 -225.5t-230.5 -122.5q-25 3 -32 28zM529.5 864q-6.5 25 11.5 35q67 24 120.5 75t53.5 116 q0 99 -113 127q-27 8 -44 32t-17 58q0 53 41.5 90t99.5 37q33 0 67.5 -14.5t65.5 -43t50.5 -79t19.5 -113.5q0 -135 -93 -225.5t-231 -122.5q-25 3 -31.5 28z" />
<glyph unicode="&#x201e;" horiz-adv-x="966" d="M81 -221.5q-7 25.5 11 35.5q67 25 120.5 75t53.5 115q0 100 -112 127q-27 8 -44.5 32t-17.5 58q0 53 41.5 90t99.5 37q75 0 139 -65t64 -189q0 -137 -91.5 -224.5t-231.5 -119.5q-25 3 -32 28.5zM529.5 -221.5q-6.5 25.5 11.5 35.5q67 25 120.5 75t53.5 115 q0 99 -113 127q-27 8 -44 32t-17 58q0 53 41.5 90t99.5 37q75 0 139 -65t64 -189q0 -137 -92 -224.5t-232 -119.5q-25 3 -31.5 28.5z" />
<glyph unicode="&#x2022;" horiz-adv-x="808" d="M86 688q0 134 92 227t225 93q132 0 226 -93.5t94 -226.5q0 -134 -93.5 -227.5t-226.5 -93.5q-131 0 -224 92.5t-93 228.5z" />
<glyph unicode="&#x2026;" horiz-adv-x="2048" d="M176 137q0 72 48.5 121t117.5 49q71 0 118.5 -51t47.5 -119q0 -71 -46.5 -118.5t-119.5 -47.5q-65 0 -115.5 47t-50.5 119zM858 137q0 72 48.5 121t117.5 49q71 0 118.5 -51t47.5 -119q0 -71 -46.5 -118.5t-119.5 -47.5q-65 0 -115.5 47t-50.5 119zM1540 137 q0 72 48.5 121t117.5 49q71 0 118.5 -51t47.5 -119q0 -71 -46.5 -118.5t-119.5 -47.5q-65 0 -115.5 47t-50.5 119z" />
<glyph unicode="&#x202f;" horiz-adv-x="363" />
<glyph unicode="&#x2039;" horiz-adv-x="522" d="M92 391q-32 37 0 74q155 167 311 352q36 -9 46 -31l-156 -327q-13 -30 0 -60l156 -333q-17 -34 -46 -31q-168 199 -311 356z" />
<glyph unicode="&#x203a;" horiz-adv-x="522" d="M74 66l155 333q13 30 0 60l-155 327q10 22 45 31q156 -185 311 -352q32 -37 0 -74q-143 -157 -311 -356q-28 -3 -45 31z" />
<glyph unicode="&#x205f;" horiz-adv-x="453" />
<glyph unicode="&#x20ac;" d="M25.5 540q8.5 36 19.5 46h88q0 90 4 123h-84q-10 10 -1 46t20 46h80q37 224 181.5 366t364.5 142q50 0 92.5 -7t92.5 -21t53 -15q12 -2 28.5 -7t20.5 -6q0 -148 21 -260q-8 -19 -33 -22.5t-33 8.5q-19 56 -36 91t-45.5 72t-71 54.5t-99.5 17.5q-107 0 -173.5 -102 t-84.5 -311h514q5 -16 1 -50t-21 -42h-500q-2 -18 -0.5 -66t0.5 -57h461q11 -9 4.5 -46t-23.5 -46h-434q9 -213 81.5 -320.5t201.5 -107.5q51 0 94.5 21.5t74.5 57.5t51.5 72t35.5 76q11 12 32 9t29 -17q-30 -168 -71 -254q-23 -5 -60 -17q-120 -43 -233 -43 q-226 0 -365 140.5t-164 382.5h-112q-10 10 -1.5 46z" />
<glyph unicode="&#x2122;" horiz-adv-x="1257" d="M61 1231q15 93 29 145q3 8 15.5 8t15.5 -8q13 -17 22.5 -20.5t40.5 -3.5h260q18 0 24.5 0.5t16 6t21.5 17.5q4 8 16 8t15 -8q-15 -67 -11 -151q-3 -13 -19.5 -14t-19.5 10q-8 40 -24.5 57.5t-54.5 17.5h-27q-12 0 -14 -3t-2 -21v-205q0 -51 5.5 -68.5t30.5 -21.5l33 -6 q6 -5 5 -22t-7 -19q-45 2 -147 2q-82 0 -119 -2q-6 3 -6.5 18.5t4.5 22.5l33 6q23 4 29.5 24.5t6.5 71.5v199q0 18 -2.5 21t-19.5 3h-16q-68 0 -93 -71q-4 -11 -22 -8.5t-19 14.5zM581.5 949q-0.5 16 2.5 22l12 2q28 4 38.5 15t12.5 34q19 180 19 229q0 52 -50 58l-16 4 q-12 5 -11 22t13 19q19 0 45 -1t37 -1q61 0 135 2q0 -23 47 -115l39 -76q15 -30 25 -30t24 24l35 76q33 71 47 121q63 -2 99 -2q77 0 102 2q9 -1 9.5 -19.5t-7.5 -21.5l-20 -4q-25 -4 -32 -14t-7 -35q0 -136 6 -222q3 -35 8 -44.5t20 -14.5l31 -8q9 -3 9 -20.5t-9 -20.5 q-29 2 -125 2q-81 0 -112 -2q-5 3 -5.5 20.5t5.5 20.5l30 8q18 4 21.5 13t3.5 36l-4 201q0 20 -4 22q-2 0 -39 -88l-39 -90q-46 -108 -57 -143q-33 -11 -52 2q-4 15 -12.5 37.5t-20 50t-14.5 35.5l-47 112q-40 93 -47 97q-2 -5 -8 -107v-125q2 -34 9 -45t32 -14l18 -2 q3 -5 3 -19t-3 -22q-20 2 -96 2q-73 0 -96 -2q-4 3 -4.5 19z" />
<glyph unicode="&#xe000;" horiz-adv-x="829" d="M0 0v829h829v-829h-829z" />
<glyph unicode="&#xfb01;" horiz-adv-x="1159" d="M33.5 736q-2.5 21 5.5 28l88 45q23 12 34 23t11 30q0 198 64 334q125 268 430 268q152 0 246 -60.5t94 -150.5q0 -61 -43 -97t-103 -36q-30 0 -55 11.5t-37 31.5q-8 13 -27 52t-28 55q-30 51 -59.5 71.5t-67.5 20.5q-22 0 -41.5 -9.5t-39.5 -35.5t-34.5 -67t-23.5 -109 t-9 -156v-115q0 -38 7.5 -44.5t46.5 -6.5h157q263 0 338 17q13 0 23.5 -8.5t11.5 -22.5q-10 -110 -10 -236v-331q0 -78 5 -110t19.5 -45t50.5 -17l33 -5q12 -9 11.5 -33.5t-13.5 -33.5q-99 6 -239 6q-127 0 -226 -6q-13 9 -13.5 33.5t11.5 33.5l33 5q28 3 40 16t16.5 46 t4.5 110v292q0 122 -16 150.5t-90 28.5h-147q-37 0 -45.5 -8t-8.5 -46v-417q0 -77 5.5 -109t20 -45t50.5 -18l27 -5q12 -9 11.5 -33.5t-13.5 -33.5q-89 6 -238 6q-136 0 -235 -6q-13 9 -14 33.5t11 33.5l33 5q36 4 50.5 17t20 45t5.5 110v413q0 41 -7.5 49.5t-43.5 8.5h-76 q-9 6 -11.5 27z" />
<glyph unicode="&#xfb02;" horiz-adv-x="1159" d="M33.5 736q-2.5 21 5.5 28l88 45q23 12 34 23t11 30q0 219 61 350q54 114 156 183t240 69q132 0 219 -61q69 22 135 61q24 0 35 -14q-6 -126 -6 -299v-913q0 -108 12 -135t63 -33l33 -4q12 -9 11.5 -36t-13.5 -36q-99 6 -239 6q-127 0 -226 -6q-13 9 -13.5 33.5t11.5 33.5 l33 5q28 3 40 16t16.5 46t4.5 110v419q0 37 -8.5 44.5t-46.5 7.5h-198q-38 0 -46 -8.5t-8 -49.5v-413q0 -77 5.5 -109t20 -45t50.5 -18l27 -5q12 -9 11.5 -33.5t-13.5 -33.5q-89 6 -238 6q-136 0 -235 -6q-13 9 -14 36t11 36l33 4q36 4 50.5 17t20 44t5.5 107v413 q0 41 -7.5 49.5t-43.5 8.5h-76q-9 6 -11.5 27zM438 877q0 -41 8 -49.5t46 -8.5h198q38 0 46.5 7t8.5 44v330q0 56 -37 111t-100 55q-33 0 -61 -20.5t-53.5 -67t-40.5 -137t-15 -217.5v-47z" />
</font>
</defs>
</svg>
